  0
SECTION
  2
HEADER
  9
$ACADVER
  1
AC1032
  9
$ACADMAINTVER
 90
        4
  9
$DWGCODEPAGE
  3
ANSI_936
  9
$LASTSAVEDBY
  1
Austin.Wang
  9
$REQUIREDVERSIONS
160
                 0
  9
$INSBASE
 10
0.0
 20
0.0
 30
0.0
  9
$EXTMIN
 10
818.3807070912699
 20
1262.893907382827
 30
-0.0015258207003583
  9
$EXTMAX
 10
2737.920391379335
 20
2474.883850754106
 30
0.0000000349246037
  9
$LIMMIN
 10
0.0
 20
0.0
  9
$LIMMAX
 10
420.0
 20
297.0
  9
$ORTHOMODE
 70
     1
  9
$REGENMODE
 70
     1
  9
$FILLMODE
 70
     1
  9
$QTEXTMODE
 70
     0
  9
$MIRRTEXT
 70
     0
  9
$LTSCALE
 40
1.0
  9
$ATTMODE
 70
     1
  9
$TEXTSIZE
 40
2.5
  9
$TRACEWID
 40
1.0
  9
$TEXTSTYLE
  7
Standard
  9
$CLAYER
  8
0
  9
$CELTYPE
  6
ByLayer
  9
$CECOLOR
 62
   256
  9
$CELTSCALE
 40
1.0
  9
$DISPSILH
 70
     0
  9
$DIMSCALE
 40
2.0
  9
$DIMASZ
 40
1.199999999999999
  9
$DIMEXO
 40
0.6
  9
$DIMDLI
 40
3.75
  9
$DIMRND
 40
0.0
  9
$DIMDLE
 40
0.0
  9
$DIMEXE
 40
1.25
  9
$DIMTP
 40
0.0
  9
$DIMTM
 40
0.0
  9
$DIMTXT
 40
1.8
  9
$DIMCEN
 40
2.5
  9
$DIMTSZ
 40
0.0
  9
$DIMTOL
 70
     0
  9
$DIMLIM
 70
     0
  9
$DIMTIH
 70
     0
  9
$DIMTOH
 70
     0
  9
$DIMSE1
 70
     0
  9
$DIMSE2
 70
     0
  9
$DIMTAD
 70
     1
  9
$DIMZIN
 70
     8
  9
$DIMBLK
  1

  9
$DIMASO
 70
     1
  9
$DIMSHO
 70
     1
  9
$DIMPOST
  1

  9
$DIMAPOST
  1

  9
$DIMALT
 70
     0
  9
$DIMALTD
 70
     3
  9
$DIMALTF
 40
0.03937007874016
  9
$DIMLFAC
 40
1.0
  9
$DIMTOFL
 70
     1
  9
$DIMTVP
 40
0.0
  9
$DIMTIX
 70
     0
  9
$DIMSOXD
 70
     0
  9
$DIMSAH
 70
     0
  9
$DIMBLK1
  1

  9
$DIMBLK2
  1

  9
$DIMSTYLE
  2
ISO-25
  9
$DIMCLRD
 70
   256
  9
$DIMCLRE
 70
   256
  9
$DIMCLRT
 70
   256
  9
$DIMTFAC
 40
1.0
  9
$DIMGAP
 40
0.3
  9
$DIMJUST
 70
     0
  9
$DIMSD1
 70
     0
  9
$DIMSD2
 70
     0
  9
$DIMTOLJ
 70
     0
  9
$DIMTZIN
 70
     8
  9
$DIMALTZ
 70
     0
  9
$DIMALTTZ
 70
     0
  9
$DIMUPT
 70
     0
  9
$DIMDEC
 70
     2
  9
$DIMTDEC
 70
     2
  9
$DIMALTU
 70
     2
  9
$DIMALTTD
 70
     3
  9
$DIMTXSTY
  7
Standard
  9
$DIMAUNIT
 70
     0
  9
$DIMADEC
 70
     0
  9
$DIMALTRND
 40
0.0
  9
$DIMAZIN
 70
     0
  9
$DIMDSEP
 70
    44
  9
$DIMATFIT
 70
     3
  9
$DIMFRAC
 70
     0
  9
$DIMLDRBLK
  1

  9
$DIMLUNIT
 70
     2
  9
$DIMLWD
 70
    -2
  9
$DIMLWE
 70
    -2
  9
$DIMTMOVE
 70
     0
  9
$DIMFXL
 40
1.0
  9
$DIMFXLON
 70
     0
  9
$DIMJOGANG
 40
0.7853981633974483
  9
$DIMTFILL
 70
     0
  9
$DIMTFILLCLR
 70
     0
  9
$DIMARCSYM
 70
     0
  9
$DIMLTYPE
  6

  9
$DIMLTEX1
  6

  9
$DIMLTEX2
  6

  9
$DIMTXTDIRECTION
 70
     0
  9
$LUNITS
 70
     2
  9
$LUPREC
 70
     4
  9
$SKETCHINC
 40
1.0
  9
$FILLETRAD
 40
0.3
  9
$AUNITS
 70
     0
  9
$AUPREC
 70
     0
  9
$MENU
  1
.
  9
$ELEVATION
 40
0.0
  9
$PELEVATION
 40
0.0
  9
$THICKNESS
 40
0.0
  9
$LIMCHECK
 70
     0
  9
$CHAMFERA
 40
0.0
  9
$CHAMFERB
 40
0.0
  9
$CHAMFERC
 40
0.0
  9
$CHAMFERD
 40
0.0
  9
$SKPOLY
 70
     0
  9
$TDCREATE
 40
2458947.557280093
  9
$TDUCREATE
 40
2458947.223946760
  9
$TDUPDATE
 40
2460745.549189815
  9
$TDUUPDATE
 40
2460745.215856481
  9
$TDINDWG
 40
28.9580671296
  9
$TDUSRTIMER
 40
28.9580671296
  9
$USRTIMER
 70
     1
  9
$ANGBASE
 50
0.0
  9
$ANGDIR
 70
     0
  9
$PDMODE
 70
     0
  9
$PDSIZE
 40
0.0
  9
$PLINEWID
 40
0.0
  9
$SPLFRAME
 70
     0
  9
$SPLINETYPE
 70
     6
  9
$SPLINESEGS
 70
     8
  9
$HANDSEED
  5
303292E
  9
$SURFTAB1
 70
     6
  9
$SURFTAB2
 70
     6
  9
$SURFTYPE
 70
     6
  9
$SURFU
 70
     6
  9
$SURFV
 70
     6
  9
$UCSBASE
  2

  9
$UCSNAME
  2

  9
$UCSORG
 10
0.0
 20
0.0
 30
0.0
  9
$UCSXDIR
 10
1.0
 20
0.0
 30
0.0
  9
$UCSYDIR
 10
0.0
 20
1.0
 30
0.0
  9
$UCSORTHOREF
  2

  9
$UCSORTHOVIEW
 70
     0
  9
$UCSORGTOP
 10
0.0
 20
0.0
 30
0.0
  9
$UCSORGBOTTOM
 10
0.0
 20
0.0
 30
0.0
  9
$UCSORGLEFT
 10
0.0
 20
0.0
 30
0.0
  9
$UCSORGRIGHT
 10
0.0
 20
0.0
 30
0.0
  9
$UCSORGFRONT
 10
0.0
 20
0.0
 30
0.0
  9
$UCSORGBACK
 10
0.0
 20
0.0
 30
0.0
  9
$PUCSBASE
  2

  9
$PUCSNAME
  2

  9
$PUCSORG
 10
0.0
 20
0.0
 30
0.0
  9
$PUCSXDIR
 10
1.0
 20
0.0
 30
0.0
  9
$PUCSYDIR
 10
0.0
 20
1.0
 30
0.0
  9
$PUCSORTHOREF
  2

  9
$PUCSORTHOVIEW
 70
     0
  9
$PUCSORGTOP
 10
0.0
 20
0.0
 30
0.0
  9
$PUCSORGBOTTOM
 10
0.0
 20
0.0
 30
0.0
  9
$PUCSORGLEFT
 10
0.0
 20
0.0
 30
0.0
  9
$PUCSORGRIGHT
 10
0.0
 20
0.0
 30
0.0
  9
$PUCSORGFRONT
 10
0.0
 20
0.0
 30
0.0
  9
$PUCSORGBACK
 10
0.0
 20
0.0
 30
0.0
  9
$USERI1
 70
     0
  9
$USERI2
 70
     0
  9
$USERI3
 70
     0
  9
$USERI4
 70
     0
  9
$USERI5
 70
     0
  9
$USERR1
 40
0.0
  9
$USERR2
 40
0.0
  9
$USERR3
 40
0.0
  9
$USERR4
 40
0.0
  9
$USERR5
 40
0.0
  9
$WORLDVIEW
 70
     1
  9
$SHADEDGE
 70
     3
  9
$SHADEDIF
 70
    70
  9
$TILEMODE
 70
     1
  9
$MAXACTVP
 70
    64
  9
$PINSBASE
 10
0.0
 20
0.0
 30
0.0
  9
$PLIMCHECK
 70
     0
  9
$PEXTMIN
 10
0.0
 20
0.0
 30
0.0
  9
$PEXTMAX
 10
0.0
 20
0.0
 30
0.0
  9
$PLIMMIN
 10
0.0
 20
0.0
  9
$PLIMMAX
 10
12.0
 20
9.0
  9
$UNITMODE
 70
     0
  9
$VISRETAIN
 70
     1
  9
$PLINEGEN
 70
     0
  9
$PSLTSCALE
 70
     1
  9
$TREEDEPTH
 70
  3020
  9
$CMLSTYLE
  2
Standard
  9
$CMLJUST
 70
     0
  9
$CMLSCALE
 40
20.0
  9
$PROXYGRAPHICS
 70
     1
  9
$MEASUREMENT
 70
     1
  9
$CELWEIGHT
370
    -1
  9
$ENDCAPS
280
     0
  9
$JOINSTYLE
280
     0
  9
$LWDISPLAY
290
     0
  9
$INSUNITS
 70
     4
  9
$HYPERLINKBASE
  1

  9
$STYLESHEET
  1

  9
$XEDIT
290
     1
  9
$CEPSNTYPE
380
     0
  9
$PSTYLEMODE
290
     1
  9
$FINGERPRINTGUID
  2
{C8CBB8FD-1BF9-3846-8C39-81E507FBB49B}
  9
$VERSIONGUID
  2
{CDA10F80-8566-F740-B5BE-CFB2C39D6637}
  9
$EXTNAMES
290
     1
  9
$PSVPSCALE
 40
0.0
  9
$OLESTARTUP
290
     0
  9
$SORTENTS
280
   127
  9
$INDEXCTL
280
     0
  9
$HIDETEXT
280
     1
  9
$XCLIPFRAME
280
     2
  9
$HALOGAP
280
     0
  9
$OBSCOLOR
 70
   257
  9
$OBSLTYPE
280
     0
  9
$INTERSECTIONDISPLAY
280
     0
  9
$INTERSECTIONCOLOR
 70
   257
  9
$DIMASSOC
280
     2
  9
$PROJECTNAME
  1

  9
$CAMERADISPLAY
290
     0
  9
$LENSLENGTH
 40
50.0
  9
$CAMERAHEIGHT
 40
0.0
  9
$STEPSPERSEC
 40
2.0
  9
$STEPSIZE
 40
6.0
  9
$3DDWFPREC
 40
2.0
  9
$PSOLWIDTH
 40
5.0
  9
$PSOLHEIGHT
 40
80.0
  9
$LOFTANG1
 40
1.570796326794896
  9
$LOFTANG2
 40
1.570796326794896
  9
$LOFTMAG1
 40
0.0
  9
$LOFTMAG2
 40
0.0
  9
$LOFTPARAM
 70
     7
  9
$LOFTNORMALS
280
     1
  9
$LATITUDE
 40
37.795
  9
$LONGITUDE
 40
-122.394
  9
$NORTHDIRECTION
 40
0.0
  9
$TIMEZONE
 70
 -8000
  9
$LIGHTGLYPHDISPLAY
280
     1
  9
$TILEMODELIGHTSYNCH
280
     1
  9
$CMATERIAL
347
EC
  9
$SOLIDHIST
280
     0
  9
$SHOWHIST
280
     1
  9
$DWFFRAME
280
     2
  9
$DGNFRAME
280
     0
  9
$REALWORLDSCALE
290
     1
  9
$INTERFERECOLOR
 62
     1
  9
$INTERFEREOBJVS
345
F9
  9
$INTERFEREVPVS
346
F6
  9
$CSHADOW
280
     0
  9
$SHADOWPLANELOCATION
 40
0.0
  0
ENDSEC
  0
SECTION
  2
CLASSES
  0
CLASS
  1
ACDBDICTIONARYWDFLT
  2
AcDbDictionaryWithDefault
  3
ObjectDBX Classes
 90
        0
 91
        1
280
     0
281
     0
  0
CLASS
  1
DICTIONARYVAR
  2
AcDbDictionaryVar
  3
ObjectDBX Classes
 90
        0
 91
       17
280
     0
281
     0
  0
CLASS
  1
TABLESTYLE
  2
AcDbTableStyle
  3
ObjectDBX Classes
 90
     4095
 91
        1
280
     0
281
     0
  0
CLASS
  1
MATERIAL
  2
AcDbMaterial
  3
ObjectDBX Classes
 90
     1153
 91
        3
280
     0
281
     0
  0
CLASS
  1
VISUALSTYLE
  2
AcDbVisualStyle
  3
ObjectDBX Classes
 90
     4095
 91
       25
280
     0
281
     0
  0
CLASS
  1
SCALE
  2
AcDbScale
  3
ObjectDBX Classes
 90
     1153
 91
       17
280
     0
281
     0
  0
CLASS
  1
MLEADERSTYLE
  2
AcDbMLeaderStyle
  3
ACDB_MLEADERSTYLE_CLASS
 90
     4095
 91
        2
280
     0
281
     0
  0
CLASS
  1
CELLSTYLEMAP
  2
AcDbCellStyleMap
  3
ObjectDBX Classes
 90
     1152
 91
        2
280
     0
281
     0
  0
CLASS
  1
EXACXREFPANELOBJECT
  2
ExAcXREFPanelObject
  3
EXAC_ESW
 90
     1025
 91
        0
280
     0
281
     0
  0
CLASS
  1
NPOCOLLECTION
  2
AcDbImpNonPersistentObjectsCollection
  3
ObjectDBX Classes
 90
     1153
 91
        0
280
     0
281
     0
  0
CLASS
  1
LAYER_INDEX
  2
AcDbLayerIndex
  3
ObjectDBX Classes
 90
        0
 91
        0
280
     0
281
     0
  0
CLASS
  1
SPATIAL_INDEX
  2
AcDbSpatialIndex
  3
ObjectDBX Classes
 90
        0
 91
        0
280
     0
281
     0
  0
CLASS
  1
IDBUFFER
  2
AcDbIdBuffer
  3
ObjectDBX Classes
 90
        0
 91
        0
280
     0
281
     0
  0
CLASS
  1
ACDBSECTIONVIEWSTYLE
  2
AcDbSectionViewStyle
  3
ObjectDBX Classes
 90
     1025
 91
        2
280
     0
281
     0
  0
CLASS
  1
ACDBDETAILVIEWSTYLE
  2
AcDbDetailViewStyle
  3
ObjectDBX Classes
 90
     1025
 91
        2
280
     0
281
     0
  0
CLASS
  1
SORTENTSTABLE
  2
AcDbSortentsTable
  3
ObjectDBX Classes
 90
        0
 91
        7
280
     0
281
     0
  0
CLASS
  1
DIMASSOC
  2
AcDbDimAssoc
  3
"AcDbDimAssoc|Product Desc:     AcDim ARX App For Dimension|Company:          Autodesk, Inc.|WEB Address:      www.autodesk.com"
 90
        0
 91
       11
280
     0
281
     0
  0
CLASS
  1
IMAGEDEF
  2
AcDbRasterImageDef
  3
ISM
 90
        0
 91
        4
280
     0
281
     0
  0
CLASS
  1
RASTERVARIABLES
  2
AcDbRasterVariables
  3
ISM
 90
        0
 91
        1
280
     0
281
     0
  0
CLASS
  1
IMAGEDEF_REACTOR
  2
AcDbRasterImageDefReactor
  3
ISM
 90
        1
 91
        0
280
     0
281
     0
  0
CLASS
  1
IMAGE
  2
AcDbRasterImage
  3
ISM
 90
     2175
 91
        0
280
     0
281
     1
  0
ENDSEC
  0
SECTION
  2
TABLES
  0
TABLE
  2
VPORT
  5
8
330
0
100
AcDbSymbolTable
 70
     1
  0
VPORT
  5
EA
330
8
100
AcDbSymbolTableRecord
100
AcDbViewportTableRecord
  2
*Active
 70
     0
 10
0.0
 20
0.0
 11
1.0
 21
1.0
 12
2616.601897076507
 22
2387.569425045212
 13
0.0
 23
0.0
 14
10.0
 24
10.0
 15
10.0
 25
10.0
 16
0.0
 26
0.0
 36
1.0
 17
0.0
 27
0.0
 37
0.0
 40
237.4182352661173
 41
2.894817073170731
 42
50.0
 43
0.0
 44
0.0
 50
0.0
 51
0.0
 71
     0
 72
  1000
 73
     1
 74
     3
 75
     0
 76
     0
 77
     0
 78
     0
281
     0
 65
     1
110
0.0
120
0.0
130
0.0
111
1.0
121
0.0
131
0.0
112
0.0
122
1.0
132
0.0
 79
     0
146
0.0
348
F5
 60
     3
 61
     5
292
     1
282
     1
141
0.0
142
0.0
 63
   250
421
  3355443
1001
ACAD_NAV_VCDISPLAY
1070
     3
  0
ENDTAB
  0
TABLE
  2
LTYPE
  5
5
330
0
100
AcDbSymbolTable
 70
     3
  0
LTYPE
  5
14
330
5
100
AcDbSymbolTableRecord
100
AcDbLinetypeTableRecord
  2
ByBlock
 70
     0
  3

 72
    65
 73
     0
 40
0.0
  0
LTYPE
  5
15
330
5
100
AcDbSymbolTableRecord
100
AcDbLinetypeTableRecord
  2
ByLayer
 70
     0
  3

 72
    65
 73
     0
 40
0.0
  0
LTYPE
  5
16
330
5
100
AcDbSymbolTableRecord
100
AcDbLinetypeTableRecord
  2
Continuous
 70
     0
  3
Solid line
 72
    65
 73
     0
 40
0.0
  0
ENDTAB
  0
TABLE
  2
LAYER
  5
2
102
{ACAD_XDICTIONARY
360
1FF
102
}
330
0
100
AcDbSymbolTable
 70
     4
  0
LAYER
  5
10
102
{ACAD_XDICTIONARY
360
13C
102
}
330
2
100
AcDbSymbolTableRecord
100
AcDbLayerTableRecord
  2
0
 70
     0
 62
     7
  6
Continuous
370
    -3
390
F
347
EE
348
0
  0
LAYER
  5
325
330
2
100
AcDbSymbolTableRecord
100
AcDbLayerTableRecord
  2
Defpoints
 70
     0
 62
     7
  6
Continuous
290
     0
370
    -3
390
F
347
EE
348
0
  0
LAYER
  5
25CE
102
{ACAD_XDICTIONARY
360
25CF
102
}
330
2
100
AcDbSymbolTableRecord
100
AcDbLayerTableRecord
  2
1
 70
     0
 62
     7
420
 16777215
  6
Continuous
370
    -3
390
F
347
EE
348
0
  0
LAYER
  5
101F782
102
{ACAD_XDICTIONARY
360
101F783
102
}
330
2
100
AcDbSymbolTableRecord
100
AcDbLayerTableRecord
  2
实线
 70
     0
 62
     7
  6
Continuous
370
    30
390
F
347
EE
348
0
  0
ENDTAB
  0
TABLE
  2
STYLE
  5
3
330
0
100
AcDbSymbolTable
 70
     6
  0
STYLE
  5
11
330
3
100
AcDbSymbolTableRecord
100
AcDbTextStyleTableRecord
  2
Standard
 70
     0
 40
0.0
 41
1.0
 50
0.0
 71
     0
 42
2.5
  3
arial.ttf
  4

1001
ACAD
1000
Arial
1071
       34
  0
STYLE
  5
132
330
3
100
AcDbSymbolTableRecord
100
AcDbTextStyleTableRecord
  2
Annotative
 70
     0
 40
0.0
 41
1.0
 50
0.0
 71
     0
 42
2.5
  3
arial.ttf
  4

1001
AcadAnnotative
1000
AnnotativeData
1002
{
1070
     1
1070
     1
1002
}
1001
ACAD
1000
Arial
1071
       34
  0
STYLE
  5
25D0
330
3
100
AcDbSymbolTableRecord
100
AcDbTextStyleTableRecord
  2
blockfont
 70
     0
 40
0.0
 41
1.0
 50
0.0
 71
     0
 42
0.2
  3
simplex.shx
  4

  0
STYLE
  5
25D1
330
3
100
AcDbSymbolTableRecord
100
AcDbTextStyleTableRecord
  2
ROMANC
 70
     0
 40
0.0
 41
1.0
 50
0.0
 71
     0
 42
0.2
  3
romanc.shx
  4
gbcbig.shx
  0
STYLE
  5
101F784
330
3
100
AcDbSymbolTableRecord
100
AcDbTextStyleTableRecord
  2
标注
 70
     0
 40
0.0
 41
0.7
 50
0.0
 71
     0
 42
2.5
  3
italic.shx
  4

  0
ENDTAB
  0
TABLE
  2
VIEW
  5
6
330
0
100
AcDbSymbolTable
 70
     7
  0
ENDTAB
  0
TABLE
  2
UCS
  5
7
330
0
100
AcDbSymbolTable
 70
     0
  0
ENDTAB
  0
TABLE
  2
APPID
  5
9
330
0
100
AcDbSymbolTable
 70
    13
  0
APPID
  5
12
330
9
100
AcDbSymbolTableRecord
100
AcDbRegAppTableRecord
  2
ACAD
 70
     0
  0
APPID
  5
9E
330
9
100
AcDbSymbolTableRecord
100
AcDbRegAppTableRecord
  2
ACAD_PSEXT
 70
     0
  0
APPID
  5
133
330
9
100
AcDbSymbolTableRecord
100
AcDbRegAppTableRecord
  2
AcadAnnoPO
 70
     0
  0
APPID
  5
134
330
9
100
AcDbSymbolTableRecord
100
AcDbRegAppTableRecord
  2
AcadAnnotative
 70
     0
  0
APPID
  5
135
330
9
100
AcDbSymbolTableRecord
100
AcDbRegAppTableRecord
  2
ACAD_DSTYLE_DIMJAG
 70
     0
  0
APPID
  5
136
330
9
100
AcDbSymbolTableRecord
100
AcDbRegAppTableRecord
  2
ACAD_DSTYLE_DIMTALN
 70
     0
  0
APPID
  5
165
330
9
100
AcDbSymbolTableRecord
100
AcDbRegAppTableRecord
  2
ACAD_MLEADERVER
 70
     0
  0
APPID
  5
217
330
9
100
AcDbSymbolTableRecord
100
AcDbRegAppTableRecord
  2
ACAD_NAV_VCDISPLAY
 70
     0
  0
APPID
  5
26F
330
9
100
AcDbSymbolTableRecord
100
AcDbRegAppTableRecord
  2
ACAD_EXEMPT_FROM_CAD_STANDARDS
 70
     0
  0
APPID
  5
283
330
9
100
AcDbSymbolTableRecord
100
AcDbRegAppTableRecord
  2
GradientColor1ACI
 70
     0
  0
APPID
  5
284
330
9
100
AcDbSymbolTableRecord
100
AcDbRegAppTableRecord
  2
GradientColor2ACI
 70
     0
  0
APPID
  5
49B
330
9
100
AcDbSymbolTableRecord
100
AcDbRegAppTableRecord
  2
AcadAnnoMonitorAlertIconDisabled
 70
     0
  0
APPID
  5
2744
330
9
100
AcDbSymbolTableRecord
100
AcDbRegAppTableRecord
  2
ACAD_DSTYLE_DIMRADIAL_EXTENSION
 70
     0
  0
ENDTAB
  0
TABLE
  2
DIMSTYLE
  5
A
330
0
100
AcDbSymbolTable
 70
     7
100
AcDbDimStyleTable
 71
     2
340
27
340
137
  0
DIMSTYLE
105
1B0
330
A
100
AcDbSymbolTableRecord
100
AcDbDimStyleTableRecord
  2
Standard
 70
     0
340
11
  0
DIMSTYLE
105
137
330
A
100
AcDbSymbolTableRecord
100
AcDbDimStyleTableRecord
  2
Annotative
 70
     0
 40
0.0
 41
2.5
 42
0.625
 43
3.75
 44
1.25
 73
     0
 74
     0
 77
     1
 78
     8
140
2.5
141
2.5
143
0.03937007874016
147
0.625
171
     3
172
     1
271
     2
272
     2
274
     3
278
    44
283
     0
284
     8
340
11
1001
AcadAnnotative
1000
AnnotativeData
1002
{
1070
     1
1070
     1
1002
}
1001
ACAD_DSTYLE_DIMJAG
1070
   388
1040
1.5
1001
ACAD_DSTYLE_DIMTALN
1070
   392
1070
     0
  0
DIMSTYLE
105
27
102
{ACAD_REACTORS
330
3032827
330
3032835
330
303283C
330
303283F
330
3032842
102
}
330
A
100
AcDbSymbolTableRecord
100
AcDbDimStyleTableRecord
  2
ISO-25
 70
     0
 40
2.0
 41
1.199999999999999
 42
0.6
 43
3.75
 44
1.25
 73
     0
 74
     0
 77
     1
 78
     8
140
1.8
141
2.5
143
0.03937007874016
147
0.3
171
     3
172
     1
176
   256
177
   256
178
   256
271
     2
272
     2
274
     3
278
    44
283
     0
284
     8
340
11
1001
ACAD_DSTYLE_DIMJAG
1070
   388
1040
1.5
1001
ACAD_DSTYLE_DIMTALN
1070
   392
1070
     0
  0
DIMSTYLE
105
25D2
330
A
100
AcDbSymbolTableRecord
100
AcDbDimStyleTableRecord
  2
YanXiu
 70
     0
 41
2.2
 42
0.6600000000000001
 43
0.6600000000000001
 44
0.6600000000000001
 73
     0
 74
     0
 78
     8
 79
     2
140
2.5
141
0.0
147
0.6600000000000001
176
   256
177
   131
178
    42
179
     2
271
     2
272
     2
283
     0
284
     8
340
25D1
371
     5
372
     5
  0
DIMSTYLE
105
30326A2
330
A
100
AcDbSymbolTableRecord
100
AcDbDimStyleTableRecord
  2
SCALE 6
 70
     0
 40
6.0
 41
1.399999999999999
 42
0.0
 43
0.3800000000000001
 44
0.8
 78
     8
140
1.5
147
1.199999999999999
172
     1
271
     1
272
     1
340
11
  0
ENDTAB
  0
TABLE
  2
BLOCK_RECORD
  5
1
330
0
100
AcDbSymbolTable
 70
    33
  0
BLOCK_RECORD
  5
1F
102
{ACAD_XDICTIONARY
360
1CE
102
}
330
1
100
AcDbSymbolTableRecord
100
AcDbBlockTableRecord
  2
*Model_Space
340
22
 70
     0
280
     1
281
     0
  0
BLOCK_RECORD
  5
D2
330
1
100
AcDbSymbolTableRecord
100
AcDbBlockTableRecord
  2
*Paper_Space
340
D3
 70
     0
280
     1
281
     0
  0
BLOCK_RECORD
  5
D6
330
1
100
AcDbSymbolTableRecord
100
AcDbBlockTableRecord
  2
*Paper_Space0
340
D7
 70
     0
280
     1
281
     0
  0
BLOCK_RECORD
  5
25A3
330
1
100
AcDbSymbolTableRecord
100
AcDbBlockTableRecord
  2
ASSORTED_DRAFT2
340
0
 70
     0
280
     1
281
     0
  0
BLOCK_RECORD
  5
202D5E1
330
1
100
AcDbSymbolTableRecord
100
AcDbBlockTableRecord
  2
*D2
340
0
 70
     0
280
     1
281
     0
  0
BLOCK_RECORD
  5
202D5FF
330
1
100
AcDbSymbolTableRecord
100
AcDbBlockTableRecord
  2
*D3
340
0
 70
     0
280
     1
281
     0
  0
BLOCK_RECORD
  5
202D627
330
1
100
AcDbSymbolTableRecord
100
AcDbBlockTableRecord
  2
*D4
340
0
 70
     0
280
     1
281
     0
  0
BLOCK_RECORD
  5
303204C
330
1
100
AcDbSymbolTableRecord
100
AcDbBlockTableRecord
  2
*D5
340
0
 70
     0
280
     1
281
     0
  0
BLOCK_RECORD
  5
30320F9
330
1
100
AcDbSymbolTableRecord
100
AcDbBlockTableRecord
  2
*D6
340
0
 70
     0
280
     1
281
     0
  0
BLOCK_RECORD
  5
3032105
330
1
100
AcDbSymbolTableRecord
100
AcDbBlockTableRecord
  2
*D7
340
0
 70
     0
280
     1
281
     0
  0
BLOCK_RECORD
  5
303237E
330
1
100
AcDbSymbolTableRecord
100
AcDbBlockTableRecord
  2
*D8
340
0
 70
     0
280
     1
281
     0
  0
BLOCK_RECORD
  5
303238C
330
1
100
AcDbSymbolTableRecord
100
AcDbBlockTableRecord
  2
*D9
340
0
 70
     0
280
     1
281
     0
  0
BLOCK_RECORD
  5
30323AC
330
1
100
AcDbSymbolTableRecord
100
AcDbBlockTableRecord
  2
*D10
340
0
 70
     0
280
     1
281
     0
  0
BLOCK_RECORD
  5
30323B8
330
1
100
AcDbSymbolTableRecord
100
AcDbBlockTableRecord
  2
*D11
340
0
 70
     0
280
     1
281
     0
  0
BLOCK_RECORD
  5
30323C4
330
1
100
AcDbSymbolTableRecord
100
AcDbBlockTableRecord
  2
*D12
340
0
 70
     0
280
     1
281
     0
  0
BLOCK_RECORD
  5
303247D
330
1
100
AcDbSymbolTableRecord
100
AcDbBlockTableRecord
  2
*D13
340
0
 70
     0
280
     1
281
     0
  0
BLOCK_RECORD
  5
3032505
330
1
100
AcDbSymbolTableRecord
100
AcDbBlockTableRecord
  2
*D14
340
0
 70
     0
280
     1
281
     0
  0
BLOCK_RECORD
  5
303275B
330
1
100
AcDbSymbolTableRecord
100
AcDbBlockTableRecord
  2
*D21
340
0
 70
     0
280
     1
281
     0
  0
BLOCK_RECORD
  5
3032769
330
1
100
AcDbSymbolTableRecord
100
AcDbBlockTableRecord
  2
*D22
340
0
 70
     0
280
     1
281
     0
  0
BLOCK_RECORD
  5
3032775
330
1
100
AcDbSymbolTableRecord
100
AcDbBlockTableRecord
  2
*D23
340
0
 70
     0
280
     1
281
     0
  0
BLOCK_RECORD
  5
3032781
330
1
100
AcDbSymbolTableRecord
100
AcDbBlockTableRecord
  2
*D24
340
0
 70
     0
280
     1
281
     0
  0
BLOCK_RECORD
  5
303278D
330
1
100
AcDbSymbolTableRecord
100
AcDbBlockTableRecord
  2
*D25
340
0
 70
     0
280
     1
281
     0
  0
BLOCK_RECORD
  5
3032845
330
1
100
AcDbSymbolTableRecord
100
AcDbBlockTableRecord
  2
*D27
340
0
 70
     0
280
     1
281
     0
  0
BLOCK_RECORD
  5
3032853
330
1
100
AcDbSymbolTableRecord
100
AcDbBlockTableRecord
  2
*D28
340
0
 70
     0
280
     1
281
     0
  0
BLOCK_RECORD
  5
3032873
330
1
100
AcDbSymbolTableRecord
100
AcDbBlockTableRecord
  2
*D29
340
0
 70
     0
280
     1
281
     0
  0
BLOCK_RECORD
  5
303287F
330
1
100
AcDbSymbolTableRecord
100
AcDbBlockTableRecord
  2
*D30
340
0
 70
     0
280
     1
281
     0
  0
BLOCK_RECORD
  5
303288B
330
1
100
AcDbSymbolTableRecord
100
AcDbBlockTableRecord
  2
*D31
340
0
 70
     0
280
     1
281
     0
  0
ENDTAB
  0
ENDSEC
  0
SECTION
  2
BLOCKS
  0
BLOCK
  5
20
330
1F
100
AcDbEntity
  8
0
100
AcDbBlockBegin
  2
*Model_Space
 70
     0
 10
0.0
 20
0.0
 30
0.0
  3
*Model_Space
  1

  0
ENDBLK
  5
21
330
1F
100
AcDbEntity
  8
0
100
AcDbBlockEnd
  0
BLOCK
  5
D4
330
D2
100
AcDbEntity
 67
     1
  8
0
100
AcDbBlockBegin
  2
*Paper_Space
 70
     0
 10
0.0
 20
0.0
 30
0.0
  3
*Paper_Space
  1

  0
ENDBLK
  5
D5
330
D2
100
AcDbEntity
 67
     1
  8
0
100
AcDbBlockEnd
  0
BLOCK
  5
D8
330
D6
100
AcDbEntity
 67
     1
  8
0
100
AcDbBlockBegin
  2
*Paper_Space0
 70
     0
 10
0.0
 20
0.0
 30
0.0
  3
*Paper_Space0
  1

  0
ENDBLK
  5
D9
330
D6
100
AcDbEntity
 67
     1
  8
0
100
AcDbBlockEnd
  0
BLOCK
  5
25A4
330
25A3
100
AcDbEntity
  8
0
100
AcDbBlockBegin
  2
ASSORTED_DRAFT2
 70
     0
 10
0.0
 20
0.0
 30
0.0
  3
ASSORTED_DRAFT2
  1

  0
SOLID
  5
25A5
330
25A3
100
AcDbEntity
  8
0
 62
    32
100
AcDbTrace
 10
187.9151369446761
 20
335.4730831425334
 30
0.0
 11
183.9151388790226
 21
334.9464731521873
 31
0.0
 12
183.9151350103296
 22
335.9996931328794
 32
0.0
 13
187.9151369446761
 23
335.4730831425334
 33
0.0
  0
ENDBLK
  5
25A6
330
25A3
100
AcDbEntity
  8
0
100
AcDbBlockEnd
  0
BLOCK
  5
202D5E2
330
202D5E1
100
AcDbEntity
  8
0
370
    90
100
AcDbBlockBegin
  2
*D2
 70
     1
 10
0.0
 20
0.0
 30
0.0
  3
*D2
  1

  0
LINE
  5
3032680
330
202D5E1
100
AcDbEntity
  8
0
440
 16777216
370
    -2
100
AcDbLine
 10
2504.027634749993
 20
2394.078162346001
 30
0.0
 11
2504.027634749993
 21
2370.782447828674
 31
0.0
  0
LINE
  5
3032681
330
202D5E1
100
AcDbEntity
  8
0
440
 16777216
370
    -2
100
AcDbLine
 10
2573.432591814176
 20
2394.078162346001
 30
0.0
 11
2573.432591814176
 21
2370.782447828674
 31
0.0
  0
LINE
  5
3032682
330
202D5E1
100
AcDbEntity
  8
0
440
 16777216
370
    -2
100
AcDbLine
 10
2506.427634749993
 20
2373.282447828674
 30
0.0
 11
2571.032591814176
 21
2373.282447828674
 31
0.0
  0
SOLID
  5
3032683
330
202D5E1
100
AcDbEntity
  8
0
440
 16777216
100
AcDbTrace
 10
2506.427634749993
 20
2373.682447828674
 30
0.0
 11
2506.427634749993
 21
2372.882447828674
 31
0.0
 12
2504.027634749993
 22
2373.282447828674
 32
0.0
 13
2504.027634749993
 23
2373.282447828674
 33
0.0
  0
SOLID
  5
3032684
330
202D5E1
100
AcDbEntity
  8
0
440
 16777216
100
AcDbTrace
 10
2571.032591814176
 20
2373.682447828674
 30
0.0
 11
2571.032591814176
 21
2372.882447828674
 31
0.0
 12
2573.432591814176
 22
2373.282447828674
 32
0.0
 13
2573.432591814176
 23
2373.282447828674
 33
0.0
  0
MTEXT
  5
3032685
330
202D5E1
100
AcDbEntity
  8
0
440
 16777216
100
AcDbMText
 10
2541.005329863807
 20
2375.720510584472
 30
0.0
 40
3.6
 41
0.0
 46
0.0
 71
     5
 72
     1
  1
50.8mm
 73
     1
 44
1.0
  0
POINT
  5
3032686
330
202D5E1
100
AcDbEntity
  8
Defpoints
 62
     0
440
 16777216
100
AcDbPoint
 10
2504.027634749993
 20
2395.278162346002
 30
0.0
  0
POINT
  5
3032687
330
202D5E1
100
AcDbEntity
  8
Defpoints
 62
     0
440
 16777216
100
AcDbPoint
 10
2573.432591814176
 20
2395.278162346002
 30
0.0
  0
POINT
  5
3032688
330
202D5E1
100
AcDbEntity
  8
Defpoints
 62
     0
440
 16777216
100
AcDbPoint
 10
2573.432591814176
 20
2373.282447828674
 30
0.0
  0
ENDBLK
  5
202D5E3
330
202D5E1
100
AcDbEntity
  8
0
370
    90
100
AcDbBlockEnd
  0
BLOCK
  5
202D600
330
202D5FF
100
AcDbEntity
  8
0
370
    90
100
AcDbBlockBegin
  2
*D3
 70
     1
 10
0.0
 20
0.0
 30
0.0
  3
*D3
  1

  0
LINE
  5
3032692
330
202D5FF
100
AcDbEntity
  8
0
440
 16777216
370
    -2
100
AcDbLine
 10
2504.027634749994
 20
2407.478162346001
 30
0.0
 11
2504.027634749994
 21
2416.362233641058
 31
0.0
  0
LINE
  5
3032693
330
202D5FF
100
AcDbEntity
  8
0
440
 16777216
370
    -2
100
AcDbLine
 10
2592.98407114552
 20
2407.478162346002
 30
0.0
 11
2592.98407114552
 21
2416.362233641058
 31
0.0
  0
LINE
  5
3032694
330
202D5FF
100
AcDbEntity
  8
0
440
 16777216
370
    -2
100
AcDbLine
 10
2506.427634749994
 20
2413.862233641058
 30
0.0
 11
2590.58407114552
 21
2413.862233641058
 31
0.0
  0
SOLID
  5
3032695
330
202D5FF
100
AcDbEntity
  8
0
440
 16777216
100
AcDbTrace
 10
2506.427634749994
 20
2414.262233641058
 30
0.0
 11
2506.427634749994
 21
2413.462233641058
 31
0.0
 12
2504.027634749994
 22
2413.862233641058
 32
0.0
 13
2504.027634749994
 23
2413.862233641058
 33
0.0
  0
SOLID
  5
3032696
330
202D5FF
100
AcDbEntity
  8
0
440
 16777216
100
AcDbTrace
 10
2590.58407114552
 20
2414.262233641058
 30
0.0
 11
2590.58407114552
 21
2413.462233641058
 31
0.0
 12
2592.98407114552
 22
2413.862233641058
 32
0.0
 13
2592.98407114552
 23
2413.862233641058
 33
0.0
  0
MTEXT
  5
3032697
330
202D5FF
100
AcDbEntity
  8
0
440
 16777216
100
AcDbMText
 10
2548.505852947757
 20
2416.300296396856
 30
0.0
 40
3.6
 41
0.0
 46
0.0
 71
     5
 72
     1
  1
4572mm
 73
     1
 44
1.0
  0
POINT
  5
3032698
330
202D5FF
100
AcDbEntity
  8
Defpoints
 62
     0
440
 16777216
100
AcDbPoint
 10
2504.027634749994
 20
2406.278162346002
 30
0.0
  0
POINT
  5
3032699
330
202D5FF
100
AcDbEntity
  8
Defpoints
 62
     0
440
 16777216
100
AcDbPoint
 10
2592.98407114552
 20
2406.278162346002
 30
0.0
  0
POINT
  5
303269A
330
202D5FF
100
AcDbEntity
  8
Defpoints
 62
     0
440
 16777216
100
AcDbPoint
 10
2592.98407114552
 20
2413.862233641058
 30
0.0
  0
ENDBLK
  5
202D601
330
202D5FF
100
AcDbEntity
  8
0
370
    90
100
AcDbBlockEnd
  0
BLOCK
  5
202D628
330
202D627
100
AcDbEntity
  8
0
370
    90
100
AcDbBlockBegin
  2
*D4
 70
     1
 10
0.0
 20
0.0
 30
0.0
  3
*D4
  1

  0
LINE
  5
303266D
330
202D627
100
AcDbEntity
  8
0
440
 16777216
370
    -2
100
AcDbLine
 10
2520.037192009917
 20
2406.278162346003
 30
0.0
 11
2524.1275558766
 21
2406.278162346003
 31
0.0
  0
LINE
  5
303266E
330
202D627
100
AcDbEntity
  8
0
440
 16777216
370
    -2
100
AcDbLine
 10
2519.734717439136
 20
2394.278162346003
 30
0.0
 11
2524.1275558766
 21
2394.278162346003
 31
0.0
  0
LINE
  5
303266F
330
202D627
100
AcDbEntity
  8
0
440
 16777216
370
    -2
100
AcDbLine
 10
2521.6275558766
 20
2403.878162346003
 30
0.0
 11
2521.6275558766
 21
2396.678162346002
 31
0.0
  0
LINE
  5
3032670
330
202D627
100
AcDbEntity
  8
0
440
 16777216
370
    -2
100
AcDbLine
 10
2521.6275558766
 20
2394.278162346003
 30
0.0
 11
2521.6275558766
 21
2380.030413369195
 31
0.0
  0
SOLID
  5
3032671
330
202D627
100
AcDbEntity
  8
0
440
 16777216
100
AcDbTrace
 10
2521.227555876599
 20
2403.878162346003
 30
0.0
 11
2522.0275558766
 21
2403.878162346003
 31
0.0
 12
2521.6275558766
 22
2406.278162346003
 32
0.0
 13
2521.6275558766
 23
2406.278162346003
 33
0.0
  0
SOLID
  5
3032672
330
202D627
100
AcDbEntity
  8
0
440
 16777216
100
AcDbTrace
 10
2521.227555876599
 20
2396.678162346002
 30
0.0
 11
2522.0275558766
 21
2396.678162346002
 31
0.0
 12
2521.6275558766
 22
2394.278162346003
 32
0.0
 13
2521.6275558766
 23
2394.278162346003
 33
0.0
  0
MTEXT
  5
3032673
330
202D627
100
AcDbEntity
  8
0
440
 16777216
100
AcDbMText
 10
2519.189493120802
 20
2385.954287857598
 30
0.0
 40
3.6
 41
0.0
 46
0.0
 71
     5
 72
     1
  1
8mm
 11
0.0000000000000001
 21
1.0
 31
0.0
 73
     1
 44
1.0
  0
POINT
  5
3032674
330
202D627
100
AcDbEntity
  8
Defpoints
 62
     0
440
 16777216
100
AcDbPoint
 10
2518.837192009917
 20
2406.278162346003
 30
0.0
  0
POINT
  5
3032675
330
202D627
100
AcDbEntity
  8
Defpoints
 62
     0
440
 16777216
100
AcDbPoint
 10
2518.534717439136
 20
2394.278162346003
 30
0.0
  0
POINT
  5
3032676
330
202D627
100
AcDbEntity
  8
Defpoints
 62
     0
440
 16777216
100
AcDbPoint
 10
2521.6275558766
 20
2394.278162346003
 30
0.0
  0
ENDBLK
  5
202D629
330
202D627
100
AcDbEntity
  8
0
370
    90
100
AcDbBlockEnd
  0
BLOCK
  5
303204D
330
303204C
100
AcDbEntity
  8
0
100
AcDbBlockBegin
  2
*D5
 70
     1
 10
0.0
 20
0.0
 30
0.0
  3
*D5
  1

  0
LINE
  5
303224E
330
303204C
100
AcDbEntity
  8
0
440
 16777216
370
    -2
100
AcDbLine
 10
2504.027634749994
 20
2407.478162346001
 30
0.0
 11
2504.027634749994
 21
2416.362233641058
 31
0.0
  0
LINE
  5
303224F
330
303204C
100
AcDbEntity
  8
0
440
 16777216
370
    -2
100
AcDbLine
 10
2456.677249913808
 20
2409.427017230223
 30
0.0
 11
2456.677249913808
 21
2416.362233641058
 31
0.0
  0
LINE
  5
3032250
330
303204C
100
AcDbEntity
  8
0
440
 16777216
370
    -2
100
AcDbLine
 10
2501.627634749994
 20
2413.862233641058
 30
0.0
 11
2459.077249913808
 21
2413.862233641058
 31
0.0
  0
SOLID
  5
3032251
330
303204C
100
AcDbEntity
  8
0
440
 16777216
100
AcDbTrace
 10
2501.627634749994
 20
2414.262233641058
 30
0.0
 11
2501.627634749994
 21
2413.462233641058
 31
0.0
 12
2504.027634749994
 22
2413.862233641058
 32
0.0
 13
2504.027634749994
 23
2413.862233641058
 33
0.0
  0
SOLID
  5
3032252
330
303204C
100
AcDbEntity
  8
0
440
 16777216
100
AcDbTrace
 10
2459.077249913808
 20
2414.262233641058
 30
0.0
 11
2459.077249913808
 21
2413.462233641058
 31
0.0
 12
2456.677249913808
 22
2413.862233641058
 32
0.0
 13
2456.677249913808
 23
2413.862233641058
 33
0.0
  0
MTEXT
  5
3032253
330
303204C
100
AcDbEntity
  8
0
440
 16777216
100
AcDbMText
 10
2480.352442331901
 20
2416.300296396856
 30
0.0
 40
3.6
 41
7.141882673942701
 46
0.0
 71
     5
 72
     1
  1
150mm
 73
     1
 44
1.0
  0
POINT
  5
3032254
330
303204C
100
AcDbEntity
  8
Defpoints
 62
     0
440
 16777216
100
AcDbPoint
 10
2504.027634749994
 20
2406.278162346002
 30
0.0
  0
POINT
  5
3032255
330
303204C
100
AcDbEntity
  8
Defpoints
 62
     0
440
 16777216
100
AcDbPoint
 10
2456.677249913808
 20
2408.227017230223
 30
0.0
  0
POINT
  5
3032256
330
303204C
100
AcDbEntity
  8
Defpoints
 62
     0
440
 16777216
100
AcDbPoint
 10
2456.677249913808
 20
2413.862233641058
 30
0.0
  0
ENDBLK
  5
303204E
330
303204C
100
AcDbEntity
  8
0
100
AcDbBlockEnd
  0
BLOCK
  5
30320FA
330
30320F9
100
AcDbEntity
  8
0
100
AcDbBlockBegin
  2
*D6
 70
     1
 10
0.0
 20
0.0
 30
0.0
  3
*D6
  1

  0
LINE
  5
3032245
330
30320F9
100
AcDbEntity
  8
0
440
 16777216
370
    -2
100
AcDbLine
 10
2637.471496658861
 20
2403.665842676396
 30
0.0
 11
2637.471496658861
 21
2416.362233641058
 31
0.0
  0
LINE
  5
3032246
330
30320F9
100
AcDbEntity
  8
0
440
 16777216
370
    -2
100
AcDbLine
 10
2592.98407114552
 20
2407.478162346002
 30
0.0
 11
2592.98407114552
 21
2416.362233641058
 31
0.0
  0
LINE
  5
3032247
330
30320F9
100
AcDbEntity
  8
0
440
 16777216
370
    -2
100
AcDbLine
 10
2635.071496658861
 20
2413.862233641058
 30
0.0
 11
2595.38407114552
 21
2413.862233641058
 31
0.0
  0
SOLID
  5
3032248
330
30320F9
100
AcDbEntity
  8
0
440
 16777216
100
AcDbTrace
 10
2635.071496658861
 20
2414.262233641058
 30
0.0
 11
2635.071496658861
 21
2413.462233641058
 31
0.0
 12
2637.471496658861
 22
2413.862233641058
 32
0.0
 13
2637.471496658861
 23
2413.862233641058
 33
0.0
  0
SOLID
  5
3032249
330
30320F9
100
AcDbEntity
  8
0
440
 16777216
100
AcDbTrace
 10
2595.38407114552
 20
2414.262233641058
 30
0.0
 11
2595.38407114552
 21
2413.462233641058
 31
0.0
 12
2592.98407114552
 22
2413.862233641058
 32
0.0
 13
2592.98407114552
 23
2413.862233641058
 33
0.0
  0
MTEXT
  5
303224A
330
30320F9
100
AcDbEntity
  8
0
440
 16777216
100
AcDbMText
 10
2615.227783902191
 20
2416.300296396856
 30
0.0
 40
3.6
 41
5.068485675306957
 46
0.0
 71
     5
 72
     1
  1
150mm
 73
     1
 44
1.0
  0
POINT
  5
303224B
330
30320F9
100
AcDbEntity
  8
Defpoints
 62
     0
440
 16777216
100
AcDbPoint
 10
2637.471496658861
 20
2402.465842676396
 30
0.0
  0
POINT
  5
303224C
330
30320F9
100
AcDbEntity
  8
Defpoints
 62
     0
440
 16777216
100
AcDbPoint
 10
2592.98407114552
 20
2406.278162346002
 30
0.0
  0
POINT
  5
303224D
330
30320F9
100
AcDbEntity
  8
Defpoints
 62
     0
440
 16777216
100
AcDbPoint
 10
2592.98407114552
 20
2413.862233641058
 30
0.0
  0
ENDBLK
  5
30320FB
330
30320F9
100
AcDbEntity
  8
0
100
AcDbBlockEnd
  0
BLOCK
  5
3032106
330
3032105
100
AcDbEntity
  8
0
100
AcDbBlockBegin
  2
*D7
 70
     1
 10
0.0
 20
0.0
 30
0.0
  3
*D7
  1

  0
LINE
  5
3032531
330
3032105
100
AcDbEntity
  8
0
440
 16777216
370
    -2
100
AcDbLine
 10
2668.703724422238
 20
2393.078162346002
 30
0.0
 11
2668.703724422238
 21
2385.432229020522
 31
0.0
  0
LINE
  5
3032532
330
3032105
100
AcDbEntity
  8
0
440
 16777216
370
    -2
100
AcDbLine
 10
2673.203724422238
 20
2393.078162346002
 30
0.0
 11
2673.203724422238
 21
2385.432229020522
 31
0.0
  0
LINE
  5
3032533
330
3032105
100
AcDbEntity
  8
0
440
 16777216
370
    -2
100
AcDbLine
 10
2675.603724422238
 20
2387.932229020522
 30
0.0
 11
2678.003724422238
 21
2387.932229020522
 31
0.0
  0
LINE
  5
3032534
330
3032105
100
AcDbEntity
  8
0
440
 16777216
370
    -2
100
AcDbLine
 10
2666.303724422237
 20
2387.932229020522
 30
0.0
 11
2647.721732607776
 21
2387.932229020522
 31
0.0
  0
LINE
  5
3032535
330
3032105
100
AcDbEntity
  8
0
440
 16777216
370
    -2
100
AcDbLine
 10
2673.203724422238
 20
2387.932229020522
 30
0.0
 11
2668.703724422238
 21
2387.932229020522
 31
0.0
  0
SOLID
  5
3032536
330
3032105
100
AcDbEntity
  8
0
440
 16777216
100
AcDbTrace
 10
2675.603724422238
 20
2388.332229020522
 30
0.0
 11
2675.603724422238
 21
2387.532229020522
 31
0.0
 12
2673.203724422238
 22
2387.932229020522
 32
0.0
 13
2673.203724422238
 23
2387.932229020522
 33
0.0
  0
SOLID
  5
3032537
330
3032105
100
AcDbEntity
  8
0
440
 16777216
100
AcDbTrace
 10
2666.303724422237
 20
2388.332229020522
 30
0.0
 11
2666.303724422237
 21
2387.532229020522
 31
0.0
 12
2668.703724422238
 22
2387.932229020522
 32
0.0
 13
2668.703724422238
 23
2387.932229020522
 33
0.0
  0
MTEXT
  5
3032538
330
3032105
100
AcDbEntity
  8
0
440
 16777216
100
AcDbMText
 10
2655.812728515007
 20
2390.362924791327
 30
0.0
 40
3.6
 41
0.0
 46
0.0
 71
     5
 72
     1
  1
4.5mm
 73
     1
 44
1.0
  0
POINT
  5
3032539
330
3032105
100
AcDbEntity
  8
Defpoints
 62
     0
440
 16777216
100
AcDbPoint
 10
2668.703724422238
 20
2394.278162346003
 30
0.0
  0
POINT
  5
303253A
330
3032105
100
AcDbEntity
  8
Defpoints
 62
     0
440
 16777216
100
AcDbPoint
 10
2673.203724422238
 20
2394.278162346003
 30
0.0
  0
POINT
  5
303253B
330
3032105
100
AcDbEntity
  8
Defpoints
 62
     0
440
 16777216
100
AcDbPoint
 10
2673.203724422238
 20
2387.932229020522
 30
0.0
  0
ENDBLK
  5
3032107
330
3032105
100
AcDbEntity
  8
0
100
AcDbBlockEnd
  0
BLOCK
  5
303237F
330
303237E
100
AcDbEntity
  8
0
100
AcDbBlockBegin
  2
*D8
 70
     1
 10
0.0
 20
0.0
 30
0.0
  3
*D8
  1

  0
LINE
  5
3032426
330
303237E
100
AcDbEntity
  8
0
440
 16777216
370
    -2
100
AcDbLine
 10
2979.767416265763
 20
2393.329511421786
 30
0.0
 11
2979.767416265763
 21
2382.355269715841
 31
0.0
  0
LINE
  5
3032427
330
303237E
100
AcDbEntity
  8
0
440
 16777216
370
    -2
100
AcDbLine
 10
2981.147033186508
 20
2389.562458301621
 30
0.0
 11
2981.147033186508
 21
2382.355269715841
 31
0.0
  0
LINE
  5
3032428
330
303237E
100
AcDbEntity
  8
0
440
 16777216
370
    -2
100
AcDbLine
 10
2977.367416265763
 20
2384.855269715841
 30
0.0
 11
2974.967416265763
 21
2384.855269715841
 31
0.0
  0
LINE
  5
3032429
330
303237E
100
AcDbEntity
  8
0
440
 16777216
370
    -2
100
AcDbLine
 10
2983.547033186508
 20
2384.855269715841
 30
0.0
 11
3001.645259653084
 21
2384.855269715841
 31
0.0
  0
LINE
  5
303242A
330
303237E
100
AcDbEntity
  8
0
440
 16777216
370
    -2
100
AcDbLine
 10
2979.767416265763
 20
2384.855269715841
 30
0.0
 11
2981.147033186508
 21
2384.855269715841
 31
0.0
  0
SOLID
  5
303242B
330
303237E
100
AcDbEntity
  8
0
440
 16777216
100
AcDbTrace
 10
2977.367416265763
 20
2385.255269715841
 30
0.0
 11
2977.367416265763
 21
2384.455269715841
 31
0.0
 12
2979.767416265763
 22
2384.855269715841
 32
0.0
 13
2979.767416265763
 23
2384.855269715841
 33
0.0
  0
SOLID
  5
303242C
330
303237E
100
AcDbEntity
  8
0
440
 16777216
100
AcDbTrace
 10
2983.547033186508
 20
2385.255269715841
 30
0.0
 11
2983.547033186508
 21
2384.455269715841
 31
0.0
 12
2981.147033186508
 22
2384.855269715841
 32
0.0
 13
2981.147033186508
 23
2384.855269715841
 33
0.0
  0
MTEXT
  5
303242D
330
303237E
100
AcDbEntity
  8
0
440
 16777216
100
AcDbMText
 10
2993.796146419796
 20
2387.293332471639
 30
0.0
 40
3.6
 41
0.0
 46
0.0
 71
     5
 72
     1
  1
1.6mm
 73
     1
 44
1.0
  0
POINT
  5
303242E
330
303237E
100
AcDbEntity
  8
Defpoints
 62
     0
440
 16777216
100
AcDbPoint
 10
2979.767416265763
 20
2394.529511421786
 30
0.0
  0
POINT
  5
303242F
330
303237E
100
AcDbEntity
  8
Defpoints
 62
     0
440
 16777216
100
AcDbPoint
 10
2981.147033186508
 20
2390.762458301621
 30
0.0
  0
POINT
  5
3032430
330
303237E
100
AcDbEntity
  8
Defpoints
 62
     0
440
 16777216
100
AcDbPoint
 10
2981.147033186508
 20
2384.855269715841
 30
0.0
  0
ENDBLK
  5
3032380
330
303237E
100
AcDbEntity
  8
0
100
AcDbBlockEnd
  0
BLOCK
  5
303238D
330
303238C
100
AcDbEntity
  8
0
100
AcDbBlockBegin
  2
*D9
 70
     1
 10
0.0
 20
0.0
 30
0.0
  3
*D9
  1

  0
LINE
  5
3032431
330
303238C
100
AcDbEntity
  8
0
440
 16777216
370
    -2
100
AcDbLine
 10
2894.945947027301
 20
2399.962458301621
 30
0.0
 11
2894.945947027301
 21
2407.204227054275
 31
0.0
  0
LINE
  5
3032432
330
303238C
100
AcDbEntity
  8
0
440
 16777216
370
    -2
100
AcDbLine
 10
2874.147885432049
 20
2396.934556782106
 30
0.0
 11
2874.147885432049
 21
2407.204227054275
 31
0.0
  0
LINE
  5
3032433
330
303238C
100
AcDbEntity
  8
0
440
 16777216
370
    -2
100
AcDbLine
 10
2892.545947027301
 20
2404.704227054275
 30
0.0
 11
2876.547885432049
 21
2404.704227054275
 31
0.0
  0
SOLID
  5
3032434
330
303238C
100
AcDbEntity
  8
0
440
 16777216
100
AcDbTrace
 10
2892.545947027301
 20
2405.104227054275
 30
0.0
 11
2892.545947027301
 21
2404.304227054275
 31
0.0
 12
2894.945947027301
 22
2404.704227054275
 32
0.0
 13
2894.945947027301
 23
2404.704227054275
 33
0.0
  0
SOLID
  5
3032435
330
303238C
100
AcDbEntity
  8
0
440
 16777216
100
AcDbTrace
 10
2876.547885432049
 20
2405.104227054275
 30
0.0
 11
2876.547885432049
 21
2404.304227054275
 31
0.0
 12
2874.147885432049
 22
2404.704227054275
 32
0.0
 13
2874.147885432049
 23
2404.704227054275
 33
0.0
  0
MTEXT
  5
3032436
330
303238C
100
AcDbEntity
  8
0
440
 16777216
100
AcDbMText
 10
2884.546916229675
 20
2407.142289810073
 30
0.0
 40
3.6
 41
0.0
 46
0.0
 71
     5
 72
     1
  1
150mm
 73
     1
 44
1.0
  0
POINT
  5
3032437
330
303238C
100
AcDbEntity
  8
Defpoints
 62
     0
440
 16777216
100
AcDbPoint
 10
2894.945947027301
 20
2398.762458301621
 30
0.0
  0
POINT
  5
3032438
330
303238C
100
AcDbEntity
  8
Defpoints
 62
     0
440
 16777216
100
AcDbPoint
 10
2874.147885432049
 20
2395.734556782106
 30
0.0
  0
POINT
  5
3032439
330
303238C
100
AcDbEntity
  8
Defpoints
 62
     0
440
 16777216
100
AcDbPoint
 10
2874.147885432049
 20
2404.704227054275
 30
0.0
  0
ENDBLK
  5
303238E
330
303238C
100
AcDbEntity
  8
0
100
AcDbBlockEnd
  0
BLOCK
  5
30323AD
330
30323AC
100
AcDbEntity
  8
0
100
AcDbBlockBegin
  2
*D10
 70
     1
 10
0.0
 20
0.0
 30
0.0
  3
*D10
  1

  0
LINE
  5
303243A
330
30323AC
100
AcDbEntity
  8
0
440
 16777216
370
    -2
100
AcDbLine
 10
2894.945947027301
 20
2399.96245830162
 30
0.0
 11
2894.945947027301
 21
2407.204227054275
 31
0.0
  0
LINE
  5
303243B
330
30323AC
100
AcDbEntity
  8
0
440
 16777216
370
    -2
100
AcDbLine
 10
2966.111096143722
 20
2399.96245830162
 30
0.0
 11
2966.111096143722
 21
2407.204227054275
 31
0.0
  0
LINE
  5
303243C
330
30323AC
100
AcDbEntity
  8
0
440
 16777216
370
    -2
100
AcDbLine
 10
2897.3459470273
 20
2404.704227054275
 30
0.0
 11
2963.711096143722
 21
2404.704227054275
 31
0.0
  0
SOLID
  5
303243D
330
30323AC
100
AcDbEntity
  8
0
440
 16777216
100
AcDbTrace
 10
2897.3459470273
 20
2405.104227054275
 30
0.0
 11
2897.3459470273
 21
2404.304227054275
 31
0.0
 12
2894.945947027301
 22
2404.704227054275
 32
0.0
 13
2894.945947027301
 23
2404.704227054275
 33
0.0
  0
SOLID
  5
303243E
330
30323AC
100
AcDbEntity
  8
0
440
 16777216
100
AcDbTrace
 10
2963.711096143722
 20
2405.104227054275
 30
0.0
 11
2963.711096143722
 21
2404.304227054275
 31
0.0
 12
2966.111096143722
 22
2404.704227054275
 32
0.0
 13
2966.111096143722
 23
2404.704227054275
 33
0.0
  0
MTEXT
  5
303243F
330
30323AC
100
AcDbEntity
  8
0
440
 16777216
100
AcDbMText
 10
2930.528521585511
 20
2407.142289810073
 30
0.0
 40
3.6
 41
0.0
 46
0.0
 71
     5
 72
     1
  1
5000mm
 73
     1
 44
1.0
  0
POINT
  5
3032440
330
30323AC
100
AcDbEntity
  8
Defpoints
 62
     0
440
 16777216
100
AcDbPoint
 10
2894.945947027301
 20
2398.76245830162
 30
0.0
  0
POINT
  5
3032441
330
30323AC
100
AcDbEntity
  8
Defpoints
 62
     0
440
 16777216
100
AcDbPoint
 10
2966.111096143722
 20
2398.76245830162
 30
0.0
  0
POINT
  5
3032442
330
30323AC
100
AcDbEntity
  8
Defpoints
 62
     0
440
 16777216
100
AcDbPoint
 10
2966.111096143722
 20
2404.704227054275
 30
0.0
  0
ENDBLK
  5
30323AE
330
30323AC
100
AcDbEntity
  8
0
100
AcDbBlockEnd
  0
BLOCK
  5
30323B9
330
30323B8
100
AcDbEntity
  8
0
100
AcDbBlockBegin
  2
*D11
 70
     1
 10
0.0
 20
0.0
 30
0.0
  3
*D11
  1

  0
LINE
  5
3032443
330
30323B8
100
AcDbEntity
  8
0
440
 16777216
370
    -2
100
AcDbLine
 10
2967.311096143723
 20
2398.762458301621
 30
0.0
 11
2975.660600842481
 21
2398.762458301621
 31
0.0
  0
LINE
  5
3032444
330
30323B8
100
AcDbEntity
  8
0
440
 16777216
370
    -2
100
AcDbLine
 10
2967.311096143723
 20
2390.762458301622
 30
0.0
 11
2975.660600842481
 21
2390.762458301622
 31
0.0
  0
LINE
  5
3032445
330
30323B8
100
AcDbEntity
  8
0
440
 16777216
370
    -2
100
AcDbLine
 10
2973.160600842481
 20
2396.362458301621
 30
0.0
 11
2973.160600842481
 21
2393.162458301622
 31
0.0
  0
SOLID
  5
3032446
330
30323B8
100
AcDbEntity
  8
0
440
 16777216
100
AcDbTrace
 10
2972.760600842481
 20
2396.362458301621
 30
0.0
 11
2973.56060084248
 21
2396.362458301621
 31
0.0
 12
2973.160600842481
 22
2398.762458301621
 32
0.0
 13
2973.160600842481
 23
2398.762458301621
 33
0.0
  0
SOLID
  5
3032447
330
30323B8
100
AcDbEntity
  8
0
440
 16777216
100
AcDbTrace
 10
2972.760600842481
 20
2393.162458301622
 30
0.0
 11
2973.56060084248
 21
2393.162458301622
 31
0.0
 12
2973.160600842481
 22
2390.762458301622
 32
0.0
 13
2973.160600842481
 23
2390.762458301622
 33
0.0
  0
MTEXT
  5
3032448
330
30323B8
100
AcDbEntity
  8
0
440
 16777216
100
AcDbMText
 10
2970.722538086683
 20
2394.76245830162
 30
0.0
 40
3.6
 41
0.0
 46
0.0
 71
     5
 72
     1
  1
8
 11
0.0000000000000001
 21
1.0
 31
0.0
 73
     1
 44
1.0
  0
POINT
  5
3032449
330
30323B8
100
AcDbEntity
  8
Defpoints
 62
     0
440
 16777216
100
AcDbPoint
 10
2966.111096143723
 20
2398.762458301621
 30
0.0
  0
POINT
  5
303244A
330
30323B8
100
AcDbEntity
  8
Defpoints
 62
     0
440
 16777216
100
AcDbPoint
 10
2966.111096143723
 20
2390.762458301622
 30
0.0
  0
POINT
  5
303244B
330
30323B8
100
AcDbEntity
  8
Defpoints
 62
     0
440
 16777216
100
AcDbPoint
 10
2973.160600842481
 20
2390.762458301622
 30
0.0
  0
ENDBLK
  5
30323BA
330
30323B8
100
AcDbEntity
  8
0
100
AcDbBlockEnd
  0
BLOCK
  5
30323C5
330
30323C4
100
AcDbEntity
  8
0
100
AcDbBlockBegin
  2
*D12
 70
     1
 10
0.0
 20
0.0
 30
0.0
  3
*D12
  1

  0
LINE
  5
303258C
330
30323C4
100
AcDbEntity
  8
0
440
 16777216
370
    -2
100
AcDbLine
 10
2894.945378268687
 20
2389.546556782105
 30
0.0
 11
2894.945378268687
 21
2379.46708170232
 31
0.0
  0
LINE
  5
303258D
330
30323C4
100
AcDbEntity
  8
0
440
 16777216
370
    -2
100
AcDbLine
 10
2950.469912678647
 20
2389.546556782105
 30
0.0
 11
2950.469912678647
 21
2379.46708170232
 31
0.0
  0
LINE
  5
303258E
330
30323C4
100
AcDbEntity
  8
0
440
 16777216
370
    -2
100
AcDbLine
 10
2897.345378268687
 20
2381.96708170232
 30
0.0
 11
2948.069912678647
 21
2381.96708170232
 31
0.0
  0
SOLID
  5
303258F
330
30323C4
100
AcDbEntity
  8
0
440
 16777216
100
AcDbTrace
 10
2897.345378268687
 20
2382.36708170232
 30
0.0
 11
2897.345378268687
 21
2381.56708170232
 31
0.0
 12
2894.945378268687
 22
2381.96708170232
 32
0.0
 13
2894.945378268687
 23
2381.96708170232
 33
0.0
  0
SOLID
  5
3032590
330
30323C4
100
AcDbEntity
  8
0
440
 16777216
100
AcDbTrace
 10
2948.069912678647
 20
2382.36708170232
 30
0.0
 11
2948.069912678647
 21
2381.56708170232
 31
0.0
 12
2950.469912678647
 22
2381.96708170232
 32
0.0
 13
2950.469912678647
 23
2381.96708170232
 33
0.0
  0
MTEXT
  5
3032591
330
30323C4
100
AcDbEntity
  8
0
440
 16777216
100
AcDbMText
 10
2922.707645473667
 20
2384.406372288951
 30
0.0
 40
3.6
 41
0.0
 46
0.0
 71
     5
 72
     1
  1
83.3mm
 73
     1
 44
1.0
  0
POINT
  5
3032592
330
30323C4
100
AcDbEntity
  8
Defpoints
 62
     0
440
 16777216
100
AcDbPoint
 10
2894.945378268687
 20
2390.746556782104
 30
0.0
  0
POINT
  5
3032593
330
30323C4
100
AcDbEntity
  8
Defpoints
 62
     0
440
 16777216
100
AcDbPoint
 10
2950.469912678647
 20
2390.746556782104
 30
0.0
  0
POINT
  5
3032594
330
30323C4
100
AcDbEntity
  8
Defpoints
 62
     0
440
 16777216
100
AcDbPoint
 10
2950.469912678647
 20
2381.96708170232
 30
0.0
  0
ENDBLK
  5
30323C6
330
30323C4
100
AcDbEntity
  8
0
100
AcDbBlockEnd
  0
BLOCK
  5
303247E
330
303247D
100
AcDbEntity
  8
0
100
AcDbBlockBegin
  2
*D13
 70
     1
 10
0.0
 20
0.0
 30
0.0
  3
*D13
  1

  0
LINE
  5
303253C
330
303247D
100
AcDbEntity
  8
0
440
 16777216
370
    -2
100
AcDbLine
 10
2673.429239760065
 20
2405.116214752747
 30
0.0
 11
2687.803335729887
 21
2405.116214752747
 31
0.0
  0
LINE
  5
303253D
330
303247D
100
AcDbEntity
  8
0
440
 16777216
370
    -2
100
AcDbLine
 10
2673.429239760065
 20
2395.716214752747
 30
0.0
 11
2687.803335729887
 21
2395.716214752747
 31
0.0
  0
LINE
  5
303253E
330
303247D
100
AcDbEntity
  8
0
440
 16777216
370
    -2
100
AcDbLine
 10
2685.303335729887
 20
2402.716214752747
 30
0.0
 11
2685.303335729887
 21
2398.116214752747
 31
0.0
  0
LINE
  5
303253F
330
303247D
100
AcDbEntity
  8
0
440
 16777216
370
    -2
100
AcDbLine
 10
2685.303335729887
 20
2395.716214752747
 30
0.0
 11
2685.303335729887
 21
2369.914577644971
 31
0.0
  0
SOLID
  5
3032540
330
303247D
100
AcDbEntity
  8
0
440
 16777216
100
AcDbTrace
 10
2684.903335729887
 20
2402.716214752747
 30
0.0
 11
2685.703335729887
 21
2402.716214752747
 31
0.0
 12
2685.303335729887
 22
2405.116214752747
 32
0.0
 13
2685.303335729887
 23
2405.116214752747
 33
0.0
  0
SOLID
  5
3032541
330
303247D
100
AcDbEntity
  8
0
440
 16777216
100
AcDbTrace
 10
2684.903335729887
 20
2398.116214752747
 30
0.0
 11
2685.703335729887
 21
2398.116214752747
 31
0.0
 12
2685.303335729887
 22
2395.716214752747
 32
0.0
 13
2685.303335729887
 23
2395.716214752747
 33
0.0
  0
MTEXT
  5
3032542
330
303247D
100
AcDbEntity
  8
0
440
 16777216
100
AcDbMText
 10
2682.841944188277
 20
2381.615396198858
 30
0.0
 40
3.6
 41
0.0
 46
0.0
 71
     5
 72
     1
  1
PCB:8mm
 11
0.0000000000000001
 21
1.0
 31
0.0
 73
     1
 44
1.0
  0
POINT
  5
3032543
330
303247D
100
AcDbEntity
  8
Defpoints
 62
     0
440
 16777216
100
AcDbPoint
 10
2672.229239760065
 20
2405.116214752747
 30
0.0
  0
POINT
  5
3032544
330
303247D
100
AcDbEntity
  8
Defpoints
 62
     0
440
 16777216
100
AcDbPoint
 10
2672.229239760065
 20
2395.716214752747
 30
0.0
  0
POINT
  5
3032545
330
303247D
100
AcDbEntity
  8
Defpoints
 62
     0
440
 16777216
100
AcDbPoint
 10
2685.303335729887
 20
2395.716214752747
 30
0.0
  0
ENDBLK
  5
303247F
330
303247D
100
AcDbEntity
  8
0
100
AcDbBlockEnd
  0
BLOCK
  5
3032506
330
3032505
100
AcDbEntity
  8
0
100
AcDbBlockBegin
  2
*D14
 70
     1
 10
0.0
 20
0.0
 30
0.0
  3
*D14
  1

  0
LINE
  5
3032546
330
3032505
100
AcDbEntity
  8
0
440
 16777216
370
    -2
100
AcDbLine
 10
2667.503724422239
 20
2394.278162346003
 30
0.0
 11
2663.519386054391
 21
2394.278162346003
 31
0.0
  0
LINE
  5
3032547
330
3032505
100
AcDbEntity
  8
0
440
 16777216
370
    -2
100
AcDbLine
 10
2667.503724422239
 20
2406.778162346003
 30
0.0
 11
2663.519386054391
 21
2406.778162346003
 31
0.0
  0
LINE
  5
3032548
330
3032505
100
AcDbEntity
  8
0
440
 16777216
370
    -2
100
AcDbLine
 10
2666.019386054391
 20
2396.678162346003
 30
0.0
 11
2666.019386054391
 21
2404.378162346003
 31
0.0
  0
LINE
  5
3032549
330
3032505
100
AcDbEntity
  8
0
440
 16777216
370
    -2
100
AcDbLine
 10
2666.019386054391
 20
2406.778162346003
 30
0.0
 11
2666.019386054391
 21
2423.47911732554
 31
0.0
  0
SOLID
  5
303254A
330
3032505
100
AcDbEntity
  8
0
440
 16777216
100
AcDbTrace
 10
2665.619386054391
 20
2396.678162346003
 30
0.0
 11
2666.419386054391
 21
2396.678162346003
 31
0.0
 12
2666.019386054391
 22
2394.278162346003
 32
0.0
 13
2666.019386054391
 23
2394.278162346003
 33
0.0
  0
SOLID
  5
303254B
330
3032505
100
AcDbEntity
  8
0
440
 16777216
100
AcDbTrace
 10
2665.619386054391
 20
2404.378162346003
 30
0.0
 11
2666.419386054391
 21
2404.378162346003
 31
0.0
 12
2666.019386054391
 22
2406.778162346003
 32
0.0
 13
2666.019386054391
 23
2406.778162346003
 33
0.0
  0
MTEXT
  5
303254C
330
3032505
100
AcDbEntity
  8
0
440
 16777216
100
AcDbMText
 10
2663.581323298592
 20
2416.328639835771
 30
0.0
 40
3.6
 41
0.0
 46
0.0
 71
     5
 72
     1
  1
10mm
 11
0.0000000000000001
 21
1.0
 31
0.0
 73
     1
 44
1.0
  0
POINT
  5
303254D
330
3032505
100
AcDbEntity
  8
Defpoints
 62
     0
440
 16777216
100
AcDbPoint
 10
2668.703724422238
 20
2394.278162346003
 30
0.0
  0
POINT
  5
303254E
330
3032505
100
AcDbEntity
  8
Defpoints
 62
     0
440
 16777216
100
AcDbPoint
 10
2668.703724422238
 20
2406.778162346003
 30
0.0
  0
POINT
  5
303254F
330
3032505
100
AcDbEntity
  8
Defpoints
 62
     0
440
 16777216
100
AcDbPoint
 10
2666.019386054391
 20
2406.778162346003
 30
0.0
  0
ENDBLK
  5
3032507
330
3032505
100
AcDbEntity
  8
0
100
AcDbBlockEnd
  0
BLOCK
  5
303275C
330
303275B
100
AcDbEntity
  8
0
100
AcDbBlockBegin
  2
*D21
 70
     1
 10
0.0
 20
0.0
 30
0.0
  3
*D21
  1

  0
LINE
  5
303275D
330
303275B
100
AcDbEntity
  8
0
440
 16777216
370
    -2
100
AcDbLine
 10
2979.767416265763
 20
2393.329511421786
 30
0.0
 11
2979.767416265763
 21
2382.355269715841
 31
0.0
  0
LINE
  5
303275E
330
303275B
100
AcDbEntity
  8
0
440
 16777216
370
    -2
100
AcDbLine
 10
2981.147033186508
 20
2389.562458301621
 30
0.0
 11
2981.147033186508
 21
2382.355269715841
 31
0.0
  0
LINE
  5
303275F
330
303275B
100
AcDbEntity
  8
0
440
 16777216
370
    -2
100
AcDbLine
 10
2977.367416265763
 20
2384.855269715841
 30
0.0
 11
2974.967416265763
 21
2384.855269715841
 31
0.0
  0
LINE
  5
3032760
330
303275B
100
AcDbEntity
  8
0
440
 16777216
370
    -2
100
AcDbLine
 10
2983.547033186508
 20
2384.855269715841
 30
0.0
 11
3001.645259653084
 21
2384.855269715841
 31
0.0
  0
LINE
  5
3032761
330
303275B
100
AcDbEntity
  8
0
440
 16777216
370
    -2
100
AcDbLine
 10
2979.767416265763
 20
2384.855269715841
 30
0.0
 11
2981.147033186508
 21
2384.855269715841
 31
0.0
  0
SOLID
  5
3032762
330
303275B
100
AcDbEntity
  8
0
440
 16777216
100
AcDbTrace
 10
2977.367416265763
 20
2385.255269715841
 30
0.0
 11
2977.367416265763
 21
2384.455269715841
 31
0.0
 12
2979.767416265763
 22
2384.855269715841
 32
0.0
 13
2979.767416265763
 23
2384.855269715841
 33
0.0
  0
SOLID
  5
3032763
330
303275B
100
AcDbEntity
  8
0
440
 16777216
100
AcDbTrace
 10
2983.547033186508
 20
2385.255269715841
 30
0.0
 11
2983.547033186508
 21
2384.455269715841
 31
0.0
 12
2981.147033186508
 22
2384.855269715841
 32
0.0
 13
2981.147033186508
 23
2384.855269715841
 33
0.0
  0
MTEXT
  5
3032764
330
303275B
100
AcDbEntity
  8
0
440
 16777216
100
AcDbMText
 10
2993.796146419796
 20
2387.293332471639
 30
0.0
 40
3.6
 41
0.0
 46
0.0
 71
     5
 72
     1
  1
1.6mm
 73
     1
 44
1.0
  0
POINT
  5
3032765
330
303275B
100
AcDbEntity
  8
Defpoints
 62
     0
440
 16777216
100
AcDbPoint
 10
2979.767416265763
 20
2394.529511421786
 30
0.0
  0
POINT
  5
3032766
330
303275B
100
AcDbEntity
  8
Defpoints
 62
     0
440
 16777216
100
AcDbPoint
 10
2981.147033186508
 20
2390.762458301621
 30
0.0
  0
POINT
  5
3032767
330
303275B
100
AcDbEntity
  8
Defpoints
 62
     0
440
 16777216
100
AcDbPoint
 10
2981.147033186508
 20
2384.855269715841
 30
0.0
  0
ENDBLK
  5
3032768
330
303275B
100
AcDbEntity
  8
0
100
AcDbBlockEnd
  0
BLOCK
  5
303276A
330
3032769
100
AcDbEntity
  8
0
100
AcDbBlockBegin
  2
*D22
 70
     1
 10
0.0
 20
0.0
 30
0.0
  3
*D22
  1

  0
LINE
  5
303276B
330
3032769
100
AcDbEntity
  8
0
440
 16777216
370
    -2
100
AcDbLine
 10
2894.945947027301
 20
2399.962458301621
 30
0.0
 11
2894.945947027301
 21
2407.204227054275
 31
0.0
  0
LINE
  5
303276C
330
3032769
100
AcDbEntity
  8
0
440
 16777216
370
    -2
100
AcDbLine
 10
2874.147885432049
 20
2396.934556782106
 30
0.0
 11
2874.147885432049
 21
2407.204227054275
 31
0.0
  0
LINE
  5
303276D
330
3032769
100
AcDbEntity
  8
0
440
 16777216
370
    -2
100
AcDbLine
 10
2892.545947027301
 20
2404.704227054275
 30
0.0
 11
2876.547885432049
 21
2404.704227054275
 31
0.0
  0
SOLID
  5
303276E
330
3032769
100
AcDbEntity
  8
0
440
 16777216
100
AcDbTrace
 10
2892.545947027301
 20
2405.104227054275
 30
0.0
 11
2892.545947027301
 21
2404.304227054275
 31
0.0
 12
2894.945947027301
 22
2404.704227054275
 32
0.0
 13
2894.945947027301
 23
2404.704227054275
 33
0.0
  0
SOLID
  5
303276F
330
3032769
100
AcDbEntity
  8
0
440
 16777216
100
AcDbTrace
 10
2876.547885432049
 20
2405.104227054275
 30
0.0
 11
2876.547885432049
 21
2404.304227054275
 31
0.0
 12
2874.147885432049
 22
2404.704227054275
 32
0.0
 13
2874.147885432049
 23
2404.704227054275
 33
0.0
  0
MTEXT
  5
3032770
330
3032769
100
AcDbEntity
  8
0
440
 16777216
100
AcDbMText
 10
2884.546916229675
 20
2407.142289810073
 30
0.0
 40
3.6
 41
0.0
 46
0.0
 71
     5
 72
     1
  1
150mm
 73
     1
 44
1.0
  0
POINT
  5
3032771
330
3032769
100
AcDbEntity
  8
Defpoints
 62
     0
440
 16777216
100
AcDbPoint
 10
2894.945947027301
 20
2398.762458301621
 30
0.0
  0
POINT
  5
3032772
330
3032769
100
AcDbEntity
  8
Defpoints
 62
     0
440
 16777216
100
AcDbPoint
 10
2874.147885432049
 20
2395.734556782106
 30
0.0
  0
POINT
  5
3032773
330
3032769
100
AcDbEntity
  8
Defpoints
 62
     0
440
 16777216
100
AcDbPoint
 10
2874.147885432049
 20
2404.704227054275
 30
0.0
  0
ENDBLK
  5
3032774
330
3032769
100
AcDbEntity
  8
0
100
AcDbBlockEnd
  0
BLOCK
  5
3032776
330
3032775
100
AcDbEntity
  8
0
100
AcDbBlockBegin
  2
*D23
 70
     1
 10
0.0
 20
0.0
 30
0.0
  3
*D23
  1

  0
LINE
  5
3032777
330
3032775
100
AcDbEntity
  8
0
440
 16777216
370
    -2
100
AcDbLine
 10
2894.945947027301
 20
2399.96245830162
 30
0.0
 11
2894.945947027301
 21
2407.204227054275
 31
0.0
  0
LINE
  5
3032778
330
3032775
100
AcDbEntity
  8
0
440
 16777216
370
    -2
100
AcDbLine
 10
2966.111096143722
 20
2399.96245830162
 30
0.0
 11
2966.111096143722
 21
2407.204227054275
 31
0.0
  0
LINE
  5
3032779
330
3032775
100
AcDbEntity
  8
0
440
 16777216
370
    -2
100
AcDbLine
 10
2897.3459470273
 20
2404.704227054275
 30
0.0
 11
2963.711096143722
 21
2404.704227054275
 31
0.0
  0
SOLID
  5
303277A
330
3032775
100
AcDbEntity
  8
0
440
 16777216
100
AcDbTrace
 10
2897.3459470273
 20
2405.104227054275
 30
0.0
 11
2897.3459470273
 21
2404.304227054275
 31
0.0
 12
2894.945947027301
 22
2404.704227054275
 32
0.0
 13
2894.945947027301
 23
2404.704227054275
 33
0.0
  0
SOLID
  5
303277B
330
3032775
100
AcDbEntity
  8
0
440
 16777216
100
AcDbTrace
 10
2963.711096143722
 20
2405.104227054275
 30
0.0
 11
2963.711096143722
 21
2404.304227054275
 31
0.0
 12
2966.111096143722
 22
2404.704227054275
 32
0.0
 13
2966.111096143722
 23
2404.704227054275
 33
0.0
  0
MTEXT
  5
303277C
330
3032775
100
AcDbEntity
  8
0
440
 16777216
100
AcDbMText
 10
2930.528521585511
 20
2407.142289810073
 30
0.0
 40
3.6
 41
0.0
 46
0.0
 71
     5
 72
     1
  1
5000mm
 73
     1
 44
1.0
  0
POINT
  5
303277D
330
3032775
100
AcDbEntity
  8
Defpoints
 62
     0
440
 16777216
100
AcDbPoint
 10
2894.945947027301
 20
2398.76245830162
 30
0.0
  0
POINT
  5
303277E
330
3032775
100
AcDbEntity
  8
Defpoints
 62
     0
440
 16777216
100
AcDbPoint
 10
2966.111096143722
 20
2398.76245830162
 30
0.0
  0
POINT
  5
303277F
330
3032775
100
AcDbEntity
  8
Defpoints
 62
     0
440
 16777216
100
AcDbPoint
 10
2966.111096143722
 20
2404.704227054275
 30
0.0
  0
ENDBLK
  5
3032780
330
3032775
100
AcDbEntity
  8
0
100
AcDbBlockEnd
  0
BLOCK
  5
3032782
330
3032781
100
AcDbEntity
  8
0
100
AcDbBlockBegin
  2
*D24
 70
     1
 10
0.0
 20
0.0
 30
0.0
  3
*D24
  1

  0
LINE
  5
3032783
330
3032781
100
AcDbEntity
  8
0
440
 16777216
370
    -2
100
AcDbLine
 10
2967.311096143723
 20
2398.762458301621
 30
0.0
 11
2975.660600842481
 21
2398.762458301621
 31
0.0
  0
LINE
  5
3032784
330
3032781
100
AcDbEntity
  8
0
440
 16777216
370
    -2
100
AcDbLine
 10
2967.311096143723
 20
2390.762458301622
 30
0.0
 11
2975.660600842481
 21
2390.762458301622
 31
0.0
  0
LINE
  5
3032785
330
3032781
100
AcDbEntity
  8
0
440
 16777216
370
    -2
100
AcDbLine
 10
2973.160600842481
 20
2396.362458301621
 30
0.0
 11
2973.160600842481
 21
2393.162458301622
 31
0.0
  0
SOLID
  5
3032786
330
3032781
100
AcDbEntity
  8
0
440
 16777216
100
AcDbTrace
 10
2972.760600842481
 20
2396.362458301621
 30
0.0
 11
2973.56060084248
 21
2396.362458301621
 31
0.0
 12
2973.160600842481
 22
2398.762458301621
 32
0.0
 13
2973.160600842481
 23
2398.762458301621
 33
0.0
  0
SOLID
  5
3032787
330
3032781
100
AcDbEntity
  8
0
440
 16777216
100
AcDbTrace
 10
2972.760600842481
 20
2393.162458301622
 30
0.0
 11
2973.56060084248
 21
2393.162458301622
 31
0.0
 12
2973.160600842481
 22
2390.762458301622
 32
0.0
 13
2973.160600842481
 23
2390.762458301622
 33
0.0
  0
MTEXT
  5
3032788
330
3032781
100
AcDbEntity
  8
0
440
 16777216
100
AcDbMText
 10
2970.722538086683
 20
2394.76245830162
 30
0.0
 40
3.6
 41
0.0
 46
0.0
 71
     5
 72
     1
  1
8
 11
0.0000000000000001
 21
1.0
 31
0.0
 73
     1
 44
1.0
  0
POINT
  5
3032789
330
3032781
100
AcDbEntity
  8
Defpoints
 62
     0
440
 16777216
100
AcDbPoint
 10
2966.111096143723
 20
2398.762458301621
 30
0.0
  0
POINT
  5
303278A
330
3032781
100
AcDbEntity
  8
Defpoints
 62
     0
440
 16777216
100
AcDbPoint
 10
2966.111096143723
 20
2390.762458301622
 30
0.0
  0
POINT
  5
303278B
330
3032781
100
AcDbEntity
  8
Defpoints
 62
     0
440
 16777216
100
AcDbPoint
 10
2973.160600842481
 20
2390.762458301622
 30
0.0
  0
ENDBLK
  5
303278C
330
3032781
100
AcDbEntity
  8
0
100
AcDbBlockEnd
  0
BLOCK
  5
303278E
330
303278D
100
AcDbEntity
  8
0
100
AcDbBlockBegin
  2
*D25
 70
     1
 10
0.0
 20
0.0
 30
0.0
  3
*D25
  1

  0
LINE
  5
303278F
330
303278D
100
AcDbEntity
  8
0
440
 16777216
370
    -2
100
AcDbLine
 10
2894.945378268687
 20
2389.546556782105
 30
0.0
 11
2894.945378268687
 21
2379.46708170232
 31
0.0
  0
LINE
  5
3032790
330
303278D
100
AcDbEntity
  8
0
440
 16777216
370
    -2
100
AcDbLine
 10
2950.469912678647
 20
2389.546556782105
 30
0.0
 11
2950.469912678647
 21
2379.46708170232
 31
0.0
  0
LINE
  5
3032791
330
303278D
100
AcDbEntity
  8
0
440
 16777216
370
    -2
100
AcDbLine
 10
2897.345378268687
 20
2381.96708170232
 30
0.0
 11
2948.069912678647
 21
2381.96708170232
 31
0.0
  0
SOLID
  5
3032792
330
303278D
100
AcDbEntity
  8
0
440
 16777216
100
AcDbTrace
 10
2897.345378268687
 20
2382.36708170232
 30
0.0
 11
2897.345378268687
 21
2381.56708170232
 31
0.0
 12
2894.945378268687
 22
2381.96708170232
 32
0.0
 13
2894.945378268687
 23
2381.96708170232
 33
0.0
  0
SOLID
  5
3032793
330
303278D
100
AcDbEntity
  8
0
440
 16777216
100
AcDbTrace
 10
2948.069912678647
 20
2382.36708170232
 30
0.0
 11
2948.069912678647
 21
2381.56708170232
 31
0.0
 12
2950.469912678647
 22
2381.96708170232
 32
0.0
 13
2950.469912678647
 23
2381.96708170232
 33
0.0
  0
MTEXT
  5
3032794
330
303278D
100
AcDbEntity
  8
0
440
 16777216
100
AcDbMText
 10
2922.707645473667
 20
2384.406372288951
 30
0.0
 40
3.6
 41
0.0
 46
0.0
 71
     5
 72
     1
  1
83.3mm
 73
     1
 44
1.0
  0
POINT
  5
3032795
330
303278D
100
AcDbEntity
  8
Defpoints
 62
     0
440
 16777216
100
AcDbPoint
 10
2894.945378268687
 20
2390.746556782104
 30
0.0
  0
POINT
  5
3032796
330
303278D
100
AcDbEntity
  8
Defpoints
 62
     0
440
 16777216
100
AcDbPoint
 10
2950.469912678647
 20
2390.746556782104
 30
0.0
  0
POINT
  5
3032797
330
303278D
100
AcDbEntity
  8
Defpoints
 62
     0
440
 16777216
100
AcDbPoint
 10
2950.469912678647
 20
2381.96708170232
 30
0.0
  0
ENDBLK
  5
3032798
330
303278D
100
AcDbEntity
  8
0
100
AcDbBlockEnd
  0
BLOCK
  5
3032846
330
3032845
100
AcDbEntity
  8
0
100
AcDbBlockBegin
  2
*D27
 70
     1
 10
0.0
 20
0.0
 30
0.0
  3
*D27
  1

  0
LINE
  5
30328D1
330
3032845
100
AcDbEntity
  8
0
440
 16777216
370
    -2
100
AcDbLine
 10
2588.53214567537
 20
2407.249621932249
 30
0.0
 11
2588.53214567537
 21
2396.275380226303
 31
0.0
  0
LINE
  5
30328D2
330
3032845
100
AcDbEntity
  8
0
440
 16777216
370
    -2
100
AcDbLine
 10
2589.911762596115
 20
2403.482568812083
 30
0.0
 11
2589.911762596115
 21
2396.275380226303
 31
0.0
  0
LINE
  5
30328D3
330
3032845
100
AcDbEntity
  8
0
440
 16777216
370
    -2
100
AcDbLine
 10
2586.13214567537
 20
2398.775380226303
 30
0.0
 11
2583.73214567537
 21
2398.775380226303
 31
0.0
  0
LINE
  5
30328D4
330
3032845
100
AcDbEntity
  8
0
440
 16777216
370
    -2
100
AcDbLine
 10
2592.311762596115
 20
2398.775380226303
 30
0.0
 11
2608.512990426947
 21
2398.775380226303
 31
0.0
  0
LINE
  5
30328D5
330
3032845
100
AcDbEntity
  8
0
440
 16777216
370
    -2
100
AcDbLine
 10
2588.53214567537
 20
2398.775380226303
 30
0.0
 11
2589.911762596115
 21
2398.775380226303
 31
0.0
  0
SOLID
  5
30328D6
330
3032845
100
AcDbEntity
  8
0
440
 16777216
100
AcDbTrace
 10
2586.13214567537
 20
2399.175380226303
 30
0.0
 11
2586.13214567537
 21
2398.375380226303
 31
0.0
 12
2588.53214567537
 22
2398.775380226303
 32
0.0
 13
2588.53214567537
 23
2398.775380226303
 33
0.0
  0
SOLID
  5
30328D7
330
3032845
100
AcDbEntity
  8
0
440
 16777216
100
AcDbTrace
 10
2592.311762596115
 20
2399.175380226303
 30
0.0
 11
2592.311762596115
 21
2398.375380226303
 31
0.0
 12
2589.911762596115
 22
2398.775380226303
 32
0.0
 13
2589.911762596115
 23
2398.775380226303
 33
0.0
  0
MTEXT
  5
30328D8
330
3032845
100
AcDbEntity
  8
0
440
 16777216
100
AcDbMText
 10
2602.560875829403
 20
2401.182747211297
 30
0.0
 40
3.6
 41
0.0
 46
0.0
 71
     5
 72
     1
  1
2mm
 73
     1
 44
1.0
  0
POINT
  5
30328D9
330
3032845
100
AcDbEntity
  8
Defpoints
 62
     0
440
 16777216
100
AcDbPoint
 10
2588.53214567537
 20
2408.449621932248
 30
0.0
  0
POINT
  5
30328DA
330
3032845
100
AcDbEntity
  8
Defpoints
 62
     0
440
 16777216
100
AcDbPoint
 10
2589.911762596115
 20
2404.682568812083
 30
0.0
  0
POINT
  5
30328DB
330
3032845
100
AcDbEntity
  8
Defpoints
 62
     0
440
 16777216
100
AcDbPoint
 10
2589.911762596115
 20
2398.775380226303
 30
0.0
  0
ENDBLK
  5
3032847
330
3032845
100
AcDbEntity
  8
0
100
AcDbBlockEnd
  0
BLOCK
  5
3032854
330
3032853
100
AcDbEntity
  8
0
100
AcDbBlockBegin
  2
*D28
 70
     1
 10
0.0
 20
0.0
 30
0.0
  3
*D28
  1

  0
LINE
  5
30328DC
330
3032853
100
AcDbEntity
  8
0
440
 16777216
370
    -2
100
AcDbLine
 10
2503.710676436908
 20
2413.882568812083
 30
0.0
 11
2503.710676436908
 21
2421.124337564737
 31
0.0
  0
LINE
  5
30328DD
330
3032853
100
AcDbEntity
  8
0
440
 16777216
370
    -2
100
AcDbLine
 10
2482.912614841656
 20
2410.854667292568
 30
0.0
 11
2482.912614841656
 21
2421.124337564737
 31
0.0
  0
LINE
  5
30328DE
330
3032853
100
AcDbEntity
  8
0
440
 16777216
370
    -2
100
AcDbLine
 10
2501.310676436908
 20
2418.624337564737
 30
0.0
 11
2485.312614841655
 21
2418.624337564737
 31
0.0
  0
SOLID
  5
30328DF
330
3032853
100
AcDbEntity
  8
0
440
 16777216
100
AcDbTrace
 10
2501.310676436908
 20
2419.024337564737
 30
0.0
 11
2501.310676436908
 21
2418.224337564737
 31
0.0
 12
2503.710676436908
 22
2418.624337564737
 32
0.0
 13
2503.710676436908
 23
2418.624337564737
 33
0.0
  0
SOLID
  5
30328E0
330
3032853
100
AcDbEntity
  8
0
440
 16777216
100
AcDbTrace
 10
2485.312614841655
 20
2419.024337564737
 30
0.0
 11
2485.312614841655
 21
2418.224337564737
 31
0.0
 12
2482.912614841656
 22
2418.624337564737
 32
0.0
 13
2482.912614841656
 23
2418.624337564737
 33
0.0
  0
MTEXT
  5
30328E1
330
3032853
100
AcDbEntity
  8
0
440
 16777216
100
AcDbMText
 10
2493.311645639282
 20
2421.062400320535
 30
0.0
 40
3.6
 41
0.0
 46
0.0
 71
     5
 72
     1
  1
150mm
 73
     1
 44
1.0
  0
POINT
  5
30328E2
330
3032853
100
AcDbEntity
  8
Defpoints
 62
     0
440
 16777216
100
AcDbPoint
 10
2503.710676436908
 20
2412.682568812082
 30
0.0
  0
POINT
  5
30328E3
330
3032853
100
AcDbEntity
  8
Defpoints
 62
     0
440
 16777216
100
AcDbPoint
 10
2482.912614841656
 20
2409.654667292568
 30
0.0
  0
POINT
  5
30328E4
330
3032853
100
AcDbEntity
  8
Defpoints
 62
     0
440
 16777216
100
AcDbPoint
 10
2482.912614841656
 20
2418.624337564737
 30
0.0
  0
ENDBLK
  5
3032855
330
3032853
100
AcDbEntity
  8
0
100
AcDbBlockEnd
  0
BLOCK
  5
3032874
330
3032873
100
AcDbEntity
  8
0
100
AcDbBlockBegin
  2
*D29
 70
     1
 10
0.0
 20
0.0
 30
0.0
  3
*D29
  1

  0
LINE
  5
30328E5
330
3032873
100
AcDbEntity
  8
0
440
 16777216
370
    -2
100
AcDbLine
 10
2503.710676436908
 20
2413.882568812082
 30
0.0
 11
2503.710676436908
 21
2421.124337564737
 31
0.0
  0
LINE
  5
30328E6
330
3032873
100
AcDbEntity
  8
0
440
 16777216
370
    -2
100
AcDbLine
 10
2574.875825553329
 20
2413.882568812082
 30
0.0
 11
2574.875825553329
 21
2421.124337564737
 31
0.0
  0
LINE
  5
30328E7
330
3032873
100
AcDbEntity
  8
0
440
 16777216
370
    -2
100
AcDbLine
 10
2506.110676436908
 20
2418.624337564737
 30
0.0
 11
2572.475825553329
 21
2418.624337564737
 31
0.0
  0
SOLID
  5
30328E8
330
3032873
100
AcDbEntity
  8
0
440
 16777216
100
AcDbTrace
 10
2506.110676436908
 20
2419.024337564737
 30
0.0
 11
2506.110676436908
 21
2418.224337564737
 31
0.0
 12
2503.710676436908
 22
2418.624337564737
 32
0.0
 13
2503.710676436908
 23
2418.624337564737
 33
0.0
  0
SOLID
  5
30328E9
330
3032873
100
AcDbEntity
  8
0
440
 16777216
100
AcDbTrace
 10
2572.475825553329
 20
2419.024337564737
 30
0.0
 11
2572.475825553329
 21
2418.224337564737
 31
0.0
 12
2574.875825553329
 22
2418.624337564737
 32
0.0
 13
2574.875825553329
 23
2418.624337564737
 33
0.0
  0
MTEXT
  5
30328EA
330
3032873
100
AcDbEntity
  8
0
440
 16777216
100
AcDbMText
 10
2539.293250995118
 20
2421.062400320535
 30
0.0
 40
3.6
 41
0.0
 46
0.0
 71
     5
 72
     1
  1
4572mm
 73
     1
 44
1.0
  0
POINT
  5
30328EB
330
3032873
100
AcDbEntity
  8
Defpoints
 62
     0
440
 16777216
100
AcDbPoint
 10
2503.710676436908
 20
2412.682568812082
 30
0.0
  0
POINT
  5
30328EC
330
3032873
100
AcDbEntity
  8
Defpoints
 62
     0
440
 16777216
100
AcDbPoint
 10
2574.875825553329
 20
2412.682568812082
 30
0.0
  0
POINT
  5
30328ED
330
3032873
100
AcDbEntity
  8
Defpoints
 62
     0
440
 16777216
100
AcDbPoint
 10
2574.875825553329
 20
2418.624337564737
 30
0.0
  0
ENDBLK
  5
3032875
330
3032873
100
AcDbEntity
  8
0
100
AcDbBlockEnd
  0
BLOCK
  5
3032880
330
303287F
100
AcDbEntity
  8
0
100
AcDbBlockBegin
  2
*D30
 70
     1
 10
0.0
 20
0.0
 30
0.0
  3
*D30
  1

  0
LINE
  5
30328EE
330
303287F
100
AcDbEntity
  8
0
440
 16777216
370
    -2
100
AcDbLine
 10
2576.07582555333
 20
2412.682568812083
 30
0.0
 11
2584.42533025209
 21
2412.682568812083
 31
0.0
  0
LINE
  5
30328EF
330
303287F
100
AcDbEntity
  8
0
440
 16777216
370
    -2
100
AcDbLine
 10
2576.07582555333
 20
2404.682568812083
 30
0.0
 11
2584.42533025209
 21
2404.682568812083
 31
0.0
  0
LINE
  5
30328F0
330
303287F
100
AcDbEntity
  8
0
440
 16777216
370
    -2
100
AcDbLine
 10
2581.925330252089
 20
2410.282568812083
 30
0.0
 11
2581.925330252089
 21
2407.082568812084
 31
0.0
  0
SOLID
  5
30328F1
330
303287F
100
AcDbEntity
  8
0
440
 16777216
100
AcDbTrace
 10
2581.525330252089
 20
2410.282568812083
 30
0.0
 11
2582.32533025209
 21
2410.282568812083
 31
0.0
 12
2581.925330252089
 22
2412.682568812083
 32
0.0
 13
2581.925330252089
 23
2412.682568812083
 33
0.0
  0
SOLID
  5
30328F2
330
303287F
100
AcDbEntity
  8
0
440
 16777216
100
AcDbTrace
 10
2581.525330252089
 20
2407.082568812084
 30
0.0
 11
2582.32533025209
 21
2407.082568812084
 31
0.0
 12
2581.925330252089
 22
2404.682568812083
 32
0.0
 13
2581.925330252089
 23
2404.682568812083
 33
0.0
  0
MTEXT
  5
30328F3
330
303287F
100
AcDbEntity
  8
0
440
 16777216
100
AcDbMText
 10
2579.487267496292
 20
2408.682568812082
 30
0.0
 40
3.6
 41
0.0
 46
0.0
 71
     5
 72
     1
  1
8
 11
0.0000000000000001
 21
1.0
 31
0.0
 73
     1
 44
1.0
  0
POINT
  5
30328F4
330
303287F
100
AcDbEntity
  8
Defpoints
 62
     0
440
 16777216
100
AcDbPoint
 10
2574.875825553329
 20
2412.682568812083
 30
0.0
  0
POINT
  5
30328F5
330
303287F
100
AcDbEntity
  8
Defpoints
 62
     0
440
 16777216
100
AcDbPoint
 10
2574.87582555333
 20
2404.682568812083
 30
0.0
  0
POINT
  5
30328F6
330
303287F
100
AcDbEntity
  8
Defpoints
 62
     0
440
 16777216
100
AcDbPoint
 10
2581.925330252089
 20
2404.682568812083
 30
0.0
  0
ENDBLK
  5
3032881
330
303287F
100
AcDbEntity
  8
0
100
AcDbBlockEnd
  0
BLOCK
  5
303288C
330
303288B
100
AcDbEntity
  8
0
100
AcDbBlockBegin
  2
*D31
 70
     1
 10
0.0
 20
0.0
 30
0.0
  3
*D31
  1

  0
LINE
  5
30328F7
330
303288B
100
AcDbEntity
  8
0
440
 16777216
370
    -2
100
AcDbLine
 10
2503.710107678294
 20
2403.466667292566
 30
0.0
 11
2503.710107678294
 21
2393.387192212783
 31
0.0
  0
LINE
  5
30328F8
330
303288B
100
AcDbEntity
  8
0
440
 16777216
370
    -2
100
AcDbLine
 10
2559.234642088254
 20
2403.466667292566
 30
0.0
 11
2559.234642088254
 21
2393.387192212783
 31
0.0
  0
LINE
  5
30328F9
330
303288B
100
AcDbEntity
  8
0
440
 16777216
370
    -2
100
AcDbLine
 10
2506.110107678294
 20
2395.887192212782
 30
0.0
 11
2556.834642088253
 21
2395.887192212782
 31
0.0
  0
SOLID
  5
30328FA
330
303288B
100
AcDbEntity
  8
0
440
 16777216
100
AcDbTrace
 10
2506.110107678294
 20
2396.287192212783
 30
0.0
 11
2506.110107678294
 21
2395.487192212782
 31
0.0
 12
2503.710107678294
 22
2395.887192212782
 32
0.0
 13
2503.710107678294
 23
2395.887192212782
 33
0.0
  0
SOLID
  5
30328FB
330
303288B
100
AcDbEntity
  8
0
440
 16777216
100
AcDbTrace
 10
2556.834642088253
 20
2396.287192212783
 30
0.0
 11
2556.834642088253
 21
2395.487192212782
 31
0.0
 12
2559.234642088254
 22
2395.887192212782
 32
0.0
 13
2559.234642088254
 23
2395.887192212782
 33
0.0
  0
MTEXT
  5
30328FC
330
303288B
100
AcDbEntity
  8
0
440
 16777216
100
AcDbMText
 10
2531.472374883274
 20
2398.325254968581
 30
0.0
 40
3.6
 41
0.0
 46
0.0
 71
     5
 72
     1
  1
50.8mm
 73
     1
 44
1.0
  0
POINT
  5
30328FD
330
303288B
100
AcDbEntity
  8
Defpoints
 62
     0
440
 16777216
100
AcDbPoint
 10
2503.710107678294
 20
2404.666667292567
 30
0.0
  0
POINT
  5
30328FE
330
303288B
100
AcDbEntity
  8
Defpoints
 62
     0
440
 16777216
100
AcDbPoint
 10
2559.234642088254
 20
2404.666667292567
 30
0.0
  0
POINT
  5
30328FF
330
303288B
100
AcDbEntity
  8
Defpoints
 62
     0
440
 16777216
100
AcDbPoint
 10
2559.234642088254
 20
2395.887192212782
 30
0.0
  0
ENDBLK
  5
303288D
330
303288B
100
AcDbEntity
  8
0
100
AcDbBlockEnd
  0
ENDSEC
  0
SECTION
  2
ENTITIES
  0
HATCH
  5
2022744
330
1F
100
AcDbEntity
  8
0
 62
    32
420
 13461800
370
    90
100
AcDbHatch
 10
0.0
 20
0.0
 30
0.0
210
0.0
220
0.0
230
1.0
  2
ANGLE
 70
     0
 71
     0
 91
        8
 92
        7
 72
     1
 73
     1
 93
        7
 10
969.6576538731921
 20
2369.246388139797
 42
-1.0
 10
969.65761609225
 20
2369.477618555624
 42
0.0
 10
969.6575357130088
 20
2369.969563023779
 42
0.0
 10
969.1531637630214
 20
2369.969653240644
 42
0.4142135623728521
 10
968.5530564507944
 20
2369.369760572069
 42
0.414213562373388
 10
969.152949119371
 20
2368.769653259841
 42
0.0
 10
969.657731782078
 20
2368.769562969511
 42
0.0
 97
        0
 92
       22
 72
     1
 73
     1
 93
        2
 10
968.6493510748617
 20
2369.369653250242
 42
-1.0
 10
968.8805814937762
 20
2369.369653250242
 42
-1.0
 97
        0
 92
        7
 72
     1
 73
     1
 93
        6
 10
971.438781695801
 20
2369.969431442205
 42
0.0
 10
970.9342899554769
 20
2369.969521680497
 42
0.0
 10
970.9342459329423
 20
2369.47761831339
 42
-1.002145342682728
 10
970.9342252391914
 20
2369.246388426379
 42
0.0
 10
970.9341825623484
 20
2368.76952168051
 42
0.0
 10
971.4385670521499
 20
2368.769431461402
 42
1.0
 97
        0
 92
       22
 72
     1
 73
     1
 93
        2
 10
971.9423797154764
 20
2369.369292616657
 42
-1.0
 10
971.7111492965619
 20
2369.369292616657
 42
-1.0
 97
        0
 92
        7
 72
     1
 73
     1
 93
        6
 10
971.4385670521496
 20
2365.418984185133
 42
0.0
 10
970.9338827003492
 20
2365.418893912388
 42
0.0
 10
970.9338393434654
 20
2364.934428461319
 42
-1.0
 10
970.9338186496671
 20
2364.70319804333
 42
0.0
 10
970.9337753072171
 20
2364.218893873982
 42
0.0
 10
971.4387816958009
 20
2364.218984204329
 42
1.0
 97
        0
 92
       22
 72
     1
 73
     1
 93
        2
 10
971.7111492965619
 20
2364.819123029877
 42
-1.0
 10
971.9423797154764
 20
2364.819123029877
 42
-1.0
 97
        0
 92
        7
 72
     1
 73
     1
 93
        7
 10
969.6583961856758
 20
2364.703218613217
 42
-1.0
 10
969.6583584047338
 20
2364.934449029044
 42
0.0
 10
969.6582792575778
 20
2365.41885277495
 42
0.0
 10
969.1529491193707
 20
2365.418762386693
 42
0.4142135623731976
 10
968.5530564507944
 20
2364.818655074465
 42
0.4142135623730204
 10
969.1531637630218
 20
2364.21876240589
 42
0.0
 10
969.6584753266357
 20
2364.218852790824
 42
0.0
 97
        0
 92
       22
 72
     1
 73
     1
 93
        2
 10
968.6493510748617
 20
2364.818762396292
 42
-1.0
 10
968.8805814937762
 20
2364.818762396292
 42
-1.0
 97
        0
 75
     1
 76
     1
 52
0.0
 41
1.0
 77
     0
 78
     2
 53
0.0
 43
0.0
 44
0.0
 45
0.0
 46
6.985
 79
     2
 49
5.08
 49
-1.905
 53
90.0
 43
0.0
 44
0.0
 45
-6.985
 46
0.0000000000000004
 79
     2
 49
5.08
 49
-1.905
 47
0.0325825567690454
 98
        8
 10
969.3411885426831
 20
2369.170013182522
 10
969.3411885426831
 20
2369.170013182522
 10
971.3305345207482
 20
2369.365503737123
 10
971.3305345207482
 20
2369.365503737123
 10
971.4283766532899
 20
2364.575871846833
 10
971.4283766532899
 20
2364.575871846833
 10
969.2433464101414
 20
2364.641029554643
 10
969.2433464101414
 20
2364.641029554643
1001
GradientColor1ACI
1070
     5
1001
GradientColor2ACI
1070
     2
1001
ACAD
1010
0.0
1020
0.0
1030
0.0
  0
HATCH
  5
2022818
330
1F
100
AcDbEntity
  8
0
 62
    32
420
 13461800
370
    90
100
AcDbHatch
 10
0.0
 20
0.0
 30
0.0
210
0.0
220
0.0
230
1.0
  2
ANGLE
 70
     0
 71
     0
 91
        8
 92
        7
 72
     1
 73
     1
 93
        7
 10
1034.952520359062
 20
2369.246388139797
 42
-1.0
 10
1034.95248257812
 20
2369.477618555624
 42
0.0
 10
1034.952402198879
 20
2369.969563023779
 42
0.0
 10
1034.448030248892
 20
2369.969653240644
 42
0.4142135623728521
 10
1033.847922936665
 20
2369.369760572069
 42
0.414213562373388
 10
1034.447815605241
 20
2368.769653259841
 42
0.0
 10
1034.952598267948
 20
2368.769562969511
 42
0.0
 97
        0
 92
       22
 72
     1
 73
     1
 93
        2
 10
1033.944217560732
 20
2369.369653250242
 42
-1.0
 10
1034.175447979646
 20
2369.369653250242
 42
-1.0
 97
        0
 92
        7
 72
     1
 73
     1
 93
        6
 10
1036.733648181671
 20
2369.969431442205
 42
0.0
 10
1036.229156441347
 20
2369.969521680497
 42
0.0
 10
1036.229112418812
 20
2369.47761831339
 42
-1.002145342682728
 10
1036.229091725062
 20
2369.246388426379
 42
0.0
 10
1036.229049048219
 20
2368.76952168051
 42
0.0
 10
1036.73343353802
 20
2368.769431461402
 42
1.0
 97
        0
 92
       22
 72
     1
 73
     1
 93
        2
 10
1037.237246201347
 20
2369.369292616657
 42
-1.0
 10
1037.006015782432
 20
2369.369292616657
 42
-1.0
 97
        0
 92
        7
 72
     1
 73
     1
 93
        6
 10
1036.73343353802
 20
2365.418984185133
 42
0.0
 10
1036.22874918622
 20
2365.418893912388
 42
0.0
 10
1036.228705829336
 20
2364.934428461319
 42
-1.0
 10
1036.228685135537
 20
2364.70319804333
 42
0.0
 10
1036.228641793087
 20
2364.218893873982
 42
0.0
 10
1036.733648181671
 20
2364.218984204329
 42
1.0
 97
        0
 92
       22
 72
     1
 73
     1
 93
        2
 10
1037.006015782432
 20
2364.819123029877
 42
-1.0
 10
1037.237246201347
 20
2364.819123029877
 42
-1.0
 97
        0
 92
        7
 72
     1
 73
     1
 93
        7
 10
1034.953262671546
 20
2364.703218613217
 42
-1.0
 10
1034.953224890604
 20
2364.934449029044
 42
0.0
 10
1034.953145743448
 20
2365.41885277495
 42
0.0
 10
1034.447815605241
 20
2365.418762386693
 42
0.4142135623731976
 10
1033.847922936665
 20
2364.818655074465
 42
0.4142135623730204
 10
1034.448030248892
 20
2364.21876240589
 42
0.0
 10
1034.953341812506
 20
2364.218852790824
 42
0.0
 97
        0
 92
       22
 72
     1
 73
     1
 93
        2
 10
1033.944217560732
 20
2364.818762396292
 42
-1.0
 10
1034.175447979646
 20
2364.818762396292
 42
-1.0
 97
        0
 75
     1
 76
     1
 52
0.0
 41
1.0
 77
     0
 78
     2
 53
0.0
 43
65.29486648587044
 44
0.0
 45
0.0
 46
6.985
 79
     2
 49
5.08
 49
-1.905
 53
90.0
 43
65.29486648587044
 44
0.0
 45
-6.985
 46
0.0000000000000004
 79
     2
 49
5.08
 49
-1.905
 47
0.0325825567690454
 98
        8
 10
1034.636055028553
 20
2369.170013182522
 10
1034.636055028553
 20
2369.170013182522
 10
1036.625401006618
 20
2369.365503737123
 10
1036.625401006618
 20
2369.365503737123
 10
1036.72324313916
 20
2364.575871846833
 10
1036.72324313916
 20
2364.575871846833
 10
1034.538212896012
 20
2364.641029554643
 10
1034.538212896012
 20
2364.641029554643
1001
GradientColor1ACI
1070
     5
1001
GradientColor2ACI
1070
     2
1001
ACAD
1010
0.0
1020
0.0
1030
0.0
  0
HATCH
  5
2022B6B
330
1F
100
AcDbEntity
  8
0
 62
    32
420
 13461800
370
    90
100
AcDbHatch
 10
0.0
 20
0.0
 30
0.0
210
0.0
220
0.0
230
1.0
  2
ANGLE
 70
     0
 71
     0
 91
        8
 92
        7
 72
     1
 73
     1
 93
        7
 10
819.7098407432445
 20
2369.246388139797
 42
-1.0
 10
819.7098029623026
 20
2369.477618555624
 42
0.0
 10
819.7097225830614
 20
2369.969563023779
 42
0.0
 10
819.205350633074
 20
2369.969653240644
 42
0.4142135623728521
 10
818.605243320847
 20
2369.369760572069
 42
0.414213562373388
 10
819.2051359894236
 20
2368.769653259841
 42
0.0
 10
819.7099186521306
 20
2368.769562969511
 42
0.0
 97
        0
 92
       22
 72
     1
 73
     1
 93
        2
 10
818.7015379449142
 20
2369.369653250242
 42
-1.0
 10
818.9327683638287
 20
2369.369653250242
 42
-1.0
 97
        0
 92
        7
 72
     1
 73
     1
 93
        6
 10
821.4909685658536
 20
2369.969431442205
 42
0.0
 10
820.9864768255295
 20
2369.969521680497
 42
0.0
 10
820.9864328029947
 20
2369.47761831339
 42
-1.002145342682728
 10
820.986412109244
 20
2369.246388426379
 42
0.0
 10
820.986369432401
 20
2368.76952168051
 42
0.0
 10
821.4907539222023
 20
2368.769431461402
 42
1.0
 97
        0
 92
       22
 72
     1
 73
     1
 93
        2
 10
821.9945665855288
 20
2369.369292616657
 42
-1.0
 10
821.7633361666143
 20
2369.369292616657
 42
-1.0
 97
        0
 92
        7
 72
     1
 73
     1
 93
        6
 10
821.4907539222021
 20
2365.418984185133
 42
0.0
 10
820.9860695704017
 20
2365.418893912388
 42
0.0
 10
820.986026213518
 20
2364.934428461319
 42
-1.0
 10
820.9860055197195
 20
2364.70319804333
 42
0.0
 10
820.9859621772697
 20
2364.218893873982
 42
0.0
 10
821.4909685658534
 20
2364.218984204329
 42
1.0
 97
        0
 92
       22
 72
     1
 73
     1
 93
        2
 10
821.7633361666143
 20
2364.819123029877
 42
-1.0
 10
821.9945665855288
 20
2364.819123029877
 42
-1.0
 97
        0
 92
        7
 72
     1
 73
     1
 93
        7
 10
819.7105830557283
 20
2364.703218613217
 42
-1.0
 10
819.7105452747864
 20
2364.934449029044
 42
0.0
 10
819.7104661276302
 20
2365.41885277495
 42
0.0
 10
819.2051359894232
 20
2365.418762386693
 42
0.4142135623731976
 10
818.605243320847
 20
2364.818655074465
 42
0.4142135623730204
 10
819.2053506330744
 20
2364.21876240589
 42
0.0
 10
819.7106621966881
 20
2364.218852790824
 42
0.0
 97
        0
 92
       22
 72
     1
 73
     1
 93
        2
 10
818.7015379449142
 20
2364.818762396292
 42
-1.0
 10
818.9327683638287
 20
2364.818762396292
 42
-1.0
 97
        0
 75
     1
 76
     1
 52
0.0
 41
1.0
 77
     0
 78
     2
 53
0.0
 43
-149.9478131299474
 44
0.0
 45
0.0
 46
6.985
 79
     2
 49
5.08
 49
-1.905
 53
90.0
 43
-149.9478131299474
 44
0.0
 45
-6.985
 46
0.0000000000000004
 79
     2
 49
5.08
 49
-1.905
 47
0.0325825567690454
 98
        8
 10
819.3933754127355
 20
2369.170013182522
 10
819.3933754127355
 20
2369.170013182522
 10
821.3827213908007
 20
2369.365503737123
 10
821.3827213908007
 20
2369.365503737123
 10
821.4805635233425
 20
2364.575871846833
 10
821.4805635233425
 20
2364.575871846833
 10
819.295533280194
 20
2364.641029554643
 10
819.295533280194
 20
2364.641029554643
1001
GradientColor1ACI
1070
     5
1001
GradientColor2ACI
1070
     2
1001
ACAD
1010
0.0
1020
0.0
1030
0.0
  0
HATCH
  5
202DC2D
330
1F
100
AcDbEntity
  8
0
 62
   244
420
 10033950
100
AcDbHatch
 10
0.0
 20
0.0
 30
0.0
210
0.0
220
0.0
230
1.0
  2
ANGLE
 70
     0
 71
     0
 91
        2
 92
        7
 72
     1
 73
     1
 93
        5
 10
2585.310100563035
 20
1268.828255611356
 42
0.0
 10
2586.859780082255
 20
1268.828255611356
 42
0.4142135623730951
 10
2587.609780082255
 20
1269.578255611356
 42
0.4142135623730951
 10
2586.859780082255
 20
1270.328255611356
 42
0.0
 10
2585.310234715319
 20
1270.328255611356
 42
0.0
 97
        0
 92
        7
 72
     1
 73
     1
 93
        6
 10
2585.309780082254
 20
1263.165862790053
 42
0.0
 10
2585.309780082254
 20
1264.665862790053
 42
0.0
 10
2586.859780082255
 20
1264.665862790053
 42
0.0
 10
2586.859914808135
 20
1264.665862790053
 42
-0.4142135618787816
 10
2587.609914806869
 20
1263.915862790053
 42
-0.4141609548418054
 10
2586.860049531484
 20
1263.165862790053
 42
0.0
 97
        0
 75
     1
 76
     1
 52
0.0
 41
1.0
 77
     0
 78
     2
 53
0.0
 43
-9.585296039615059
 44
92.2512188636756
 45
0.0
 46
6.985
 79
     2
 49
5.08
 49
-1.905
 53
90.0
 43
-9.585296039615059
 44
92.2512188636756
 45
-6.985
 46
0.0000000000000004
 79
     2
 49
5.08
 49
-1.905
 47
0.0764368848970176
 98
        2
 10
2585.810015012088
 20
1269.501880087897
 10
2586.80448491672
 20
1263.76910481348
1001
GradientColor1ACI
1070
     5
1001
GradientColor2ACI
1070
     2
1001
ACAD
1010
0.0
1020
0.0
1030
0.0
  0
HATCH
  5
202DC4C
330
1F
100
AcDbEntity
  8
0
 62
   244
420
 10033950
100
AcDbHatch
 10
0.0
 20
0.0
 30
0.0
210
0.0
220
0.0
230
1.0
  2
ANGLE
 70
     0
 71
     0
 91
        2
 92
        7
 72
     1
 73
     1
 93
        5
 10
2633.75674538219
 20
1268.828255611356
 42
0.0
 10
2635.306745382191
 20
1268.828255611356
 42
0.0
 10
2635.306745382191
 20
1270.328255611356
 42
0.0
 10
2633.75674538219
 20
1270.328255611356
 42
0.4142135623730951
 10
2633.00674538219
 20
1269.578255611356
 42
0.4142135623730951
 97
        0
 92
        7
 72
     1
 73
     1
 93
        5
 10
2633.00674538219
 20
1263.915862790053
 42
0.4142135623730951
 10
2633.75674538219
 20
1263.165862790053
 42
0.0
 10
2635.306745382191
 20
1263.165862790053
 42
0.0
 10
2635.306745382191
 20
1264.665862790053
 42
0.0
 10
2633.75674538219
 20
1264.665862790053
 42
0.4142135623730951
 97
        0
 75
     1
 76
     1
 52
0.0
 41
1.0
 77
     0
 78
     2
 53
0.0
 43
-9.585296039615059
 44
92.2512188636756
 45
0.0
 46
6.985
 79
     2
 49
5.08
 49
-1.905
 53
90.0
 43
-9.585296039615059
 44
92.2512188636756
 45
-6.985
 46
0.0000000000000004
 79
     2
 49
5.08
 49
-1.905
 47
0.0764368848970176
 98
        2
 10
2634.001914835099
 20
1269.425432720243
 10
2634.231401920159
 20
1263.921960683816
1001
GradientColor1ACI
1070
     5
1001
GradientColor2ACI
1070
     2
1001
ACAD
1010
0.0
1020
0.0
1030
0.0
  0
LWPOLYLINE
  5
3032140
330
1F
100
AcDbEntity
  8
0
 62
   240
420
 15540004
100
AcDbPolyline
 90
        4
 70
     1
 43
0.0
 10
2378.05004533647
 20
2474.808319835662
 10
2737.759862212806
 20
2474.808319835662
 10
2737.759862212806
 20
2322.287290244627
 10
2378.05004533647
 20
2322.287290244627
  0
LINE
  5
30327F2
330
1F
100
AcDbEntity
  8
0
100
AcDbLine
 10
2574.875825553329
 20
2412.682568812082
 30
0.0
 11
2568.1564869028
 21
2412.682568812082
 31
0.0
  0
LINE
  5
30327F3
330
1F
100
AcDbEntity
  8
0
100
AcDbLine
 10
2574.875825553329
 20
2412.682568812082
 30
0.0
 11
2568.1564869028
 21
2412.682568812082
 31
0.0
  0
LINE
  5
30327F4
330
1F
100
AcDbEntity
  8
0
100
AcDbLine
 10
2566.451359519209
 20
2412.682568812082
 30
0.0
 11
2503.710676436908
 21
2412.682568812082
 31
0.0
  0
LINE
  5
30327F5
330
1F
100
AcDbEntity
  8
0
100
AcDbLine
 10
2574.875825553329
 20
2404.682568812083
 30
0.0
 11
2567.896337266261
 21
2404.682568812083
 31
0.0
  0
LINE
  5
30327F6
330
1F
100
AcDbEntity
  8
0
100
AcDbLine
 10
2574.875825553329
 20
2404.682568812083
 30
0.0
 11
2567.896337266261
 21
2404.682568812083
 31
0.0
  0
LINE
  5
30327F7
330
1F
100
AcDbEntity
  8
0
100
AcDbLine
 10
2566.118050951562
 20
2404.682568812083
 30
0.0
 11
2503.710676436908
 21
2404.682568812083
 31
0.0
  0
HATCH
  5
30327F8
330
1F
100
AcDbEntity
  8
0
 62
    32
420
 13461800
100
AcDbHatch
 10
0.0
 20
0.0
 30
0.0
210
0.0
220
0.0
230
1.0
  2
SOLID
 70
     1
 71
     1
 91
        2
 92
        7
 72
     1
 73
     1
 93
        4
 10
2559.234642088254
 20
2411.842568812085
 42
0.0
 10
2557.874642088254
 20
2411.842568812085
 42
1.0
 10
2557.874642088254
 20
2410.562568812086
 42
0.0
 10
2559.234642088254
 20
2410.562568812086
 42
0.0
 97
        4
330
30327FB
330
30327FC
330
30327FA
330
3032806
 92
        7
 72
     1
 73
     1
 93
        4
 10
2559.234642088254
 20
2406.802568812086
 42
0.0
 10
2557.874642088254
 20
2406.802568812086
 42
1.0
 10
2557.874642088254
 20
2405.522568812086
 42
0.0
 10
2559.234642088254
 20
2405.522568812086
 42
0.0
 97
        4
330
30327FE
330
303280E
330
30327FF
330
3032806
 75
     1
 76
     1
 47
0.1155536289632858
 98
        2
 10
2558.817240407738
 20
2411.286120804077
 10
2558.909735068045
 20
2406.201760445003
450
        0
451
        0
460
0.0
461
0.0
452
        0
462
0.0
453
        2
463
0.0
 63
     5
421
      255
463
1.0
 63
     2
421
 16776960
470
LINEAR
1001
GradientColor1ACI
1070
     5
1001
GradientColor2ACI
1070
     2
1001
ACAD
1010
0.0
1020
0.0
1030
0.0
  0
HATCH
  5
30327F9
330
1F
100
AcDbEntity
  8
0
 62
    32
420
 13461800
100
AcDbHatch
 10
0.0
 20
0.0
 30
0.0
210
0.0
220
0.0
230
1.0
  2
SOLID
 70
     1
 71
     1
 91
        2
 92
        7
 72
     1
 73
     1
 93
        4
 10
2560.594642088253
 20
2411.842568812085
 42
0.0
 10
2559.234642088254
 20
2411.842568812085
 42
0.0
 10
2559.234642088254
 20
2410.562568812086
 42
0.0
 10
2560.594642088253
 20
2410.562568812085
 42
1.0
 97
        4
330
30327FB
330
3032806
330
30327FA
330
30327FD
 92
        7
 72
     1
 73
     1
 93
        4
 10
2560.594642088253
 20
2405.522568812086
 42
1.0
 10
2560.594642088253
 20
2406.802568812086
 42
0.0
 10
2559.234642088254
 20
2406.802568812086
 42
0.0
 10
2559.234642088254
 20
2405.522568812086
 42
0.0
 97
        4
330
30327FE
330
3032806
330
30327FF
330
3032800
 75
     1
 76
     1
 47
0.0451853612174112
 98
        2
 10
2560.337943458284
 20
2411.2990094129
 10
2560.337943458284
 20
2406.093649227627
450
        0
451
        0
460
0.0
461
0.0
452
        0
462
0.0
453
        2
463
0.0
 63
     5
421
      255
463
1.0
 63
     2
421
 16776960
470
LINEAR
1001
GradientColor1ACI
1070
     5
1001
GradientColor2ACI
1070
     2
1001
ACAD
1010
0.0
1020
0.0
1030
0.0
  0
LINE
  5
30327FA
102
{ACAD_REACTORS
330
30327F8
330
30327F9
102
}
330
1F
100
AcDbEntity
  8
0
100
AcDbLine
 10
2557.874642088254
 20
2410.562568812086
 30
0.0
 11
2560.594642088253
 21
2410.562568812086
 31
0.0
  0
LINE
  5
30327FB
102
{ACAD_REACTORS
330
30327F8
330
30327F9
102
}
330
1F
100
AcDbEntity
  8
0
100
AcDbLine
 10
2557.874642088254
 20
2411.842568812085
 30
0.0
 11
2560.594642088253
 21
2411.842568812085
 31
0.0
  0
ARC
  5
30327FC
102
{ACAD_REACTORS
330
30327F8
102
}
330
1F
100
AcDbEntity
  8
0
100
AcDbCircle
 10
2557.874642088254
 20
2411.202568812086
 30
0.0
 40
0.6399999999999637
100
AcDbArc
 50
90.0
 51
270.0
  0
ARC
  5
30327FD
102
{ACAD_REACTORS
330
30327F9
102
}
330
1F
100
AcDbEntity
  8
0
100
AcDbCircle
 10
2560.594642088253
 20
2411.202568812085
 30
0.0
 40
0.6399999999999637
100
AcDbArc
 50
270.0
 51
90.0
  0
LINE
  5
30327FE
102
{ACAD_REACTORS
330
30327F8
330
30327F9
102
}
330
1F
100
AcDbEntity
  8
0
100
AcDbLine
 10
2557.874642088254
 20
2406.802568812086
 30
0.0
 11
2560.594642088253
 21
2406.802568812086
 31
0.0
  0
LINE
  5
30327FF
102
{ACAD_REACTORS
330
30327F8
330
30327F9
102
}
330
1F
100
AcDbEntity
  8
0
100
AcDbLine
 10
2557.874642088254
 20
2405.522568812086
 30
0.0
 11
2560.594642088253
 21
2405.522568812086
 31
0.0
  0
ARC
  5
3032800
102
{ACAD_REACTORS
330
30327F9
102
}
330
1F
100
AcDbEntity
  8
0
100
AcDbCircle
 10
2560.594642088253
 20
2406.162568812086
 30
0.0
 40
0.6399999999999637
100
AcDbArc
 50
270.0
 51
90.0
  0
LINE
  5
3032801
330
1F
100
AcDbEntity
  8
0
 62
    40
420
 16308017
100
AcDbLine
 10
2574.875825553329
 20
2406.962568812085
 30
0.0
 11
2568.818990081972
 21
2406.962568812085
 31
0.0
  0
HATCH
  5
3032802
330
1F
100
AcDbEntity
  8
0
 62
     2
420
 15854367
100
AcDbHatch
 10
0.0
 20
0.0
 30
0.0
210
0.0
220
0.0
230
1.0
  2
SOLID
 70
     1
 71
     0
 91
        4
 92
        7
 72
     0
 73
     1
 93
        4
 10
2559.234642088254
 20
2410.402568812086
 10
2509.234642088254
 20
2410.402568812086
 10
2509.234642088254
 20
2406.962568812085
 10
2559.234642088254
 20
2406.962568812085
 97
        0
 92
        5
 93
        4
 72
     4
 94
        3
 73
     0
 74
     0
 95
       10
 96
        6
 40
0.4817141359695066
 40
0.4817141359695066
 40
0.4817141359695066
 40
0.4817141359695066
 40
0.9334992165739306
 40
1.93349921657393
 40
2.451785080604424
 40
2.451785080604424
 40
2.451785080604424
 40
2.451785080604424
 10
2567.108264648144
 20
2406.962568812077
 10
2567.263567161042
 20
2407.24843000542
 10
2567.632355977561
 20
2408.041464536281
 10
2566.992181291216
 20
2408.836199887657
 10
2565.681651442116
 20
2409.73219703964
 10
2565.639810429701
 20
2410.402568812086
 97
        0
 72
     1
 10
2565.639810429701
 20
2410.402568812086
 11
2559.234642088254
 21
2410.402568812086
 72
     1
 10
2559.234642088254
 20
2410.402568812086
 11
2559.234642088254
 21
2406.962568812086
 72
     1
 10
2559.234642088254
 20
2406.962568812085
 11
2567.108264648149
 21
2406.962568812085
 97
        0
 92
        5
 93
        4
 72
     1
 10
2569.675825553329
 20
2410.402568812086
 11
2567.344937813292
 21
2410.402568812086
 72
     4
 94
        3
 73
     0
 74
     0
 95
       10
 96
        6
 40
0.4817141359694926
 40
0.4817141359694926
 40
0.4817141359694926
 40
0.4817141359694926
 40
1.0
 40
2.0
 40
2.446339514341139
 40
2.446339514341139
 40
2.446339514341139
 40
2.446339514341139
 10
2567.344937813292
 20
2410.402568812087
 10
2567.386778825707
 20
2409.73219703964
 10
2568.697308674806
 20
2408.836199887657
 10
2569.335713824028
 20
2408.043661301849
 10
2568.971449331763
 20
2407.254376345813
 10
2568.818990081914
 20
2406.962568812017
 97
        0
 72
     1
 10
2568.818990081949
 20
2406.962568812085
 11
2569.675825553329
 21
2406.962568812085
 72
     1
 10
2569.675825553329
 20
2406.962568812085
 11
2569.675825553329
 21
2410.402568812086
 97
        0
 92
        7
 72
     0
 73
     1
 93
        4
 10
2574.875825553329
 20
2410.402568812086
 10
2569.675825553329
 20
2410.402568812086
 10
2569.675825553329
 20
2406.962568812085
 10
2574.875825553329
 20
2406.962568812085
 97
        0
 75
     1
 76
     1
 47
0.1847891052582755
 98
        4
 10
2528.406804069609
 20
2409.547742986223
 10
2561.842095292465
 20
2408.808588391031
 10
2569.091309705214
 20
2409.547742986223
 10
2571.31048282038
 20
2409.399897825628
450
        0
451
        0
460
0.0
461
0.0
452
        0
462
0.0
453
        2
463
0.0
 63
     5
421
      255
463
1.0
 63
     2
421
 16776960
470
LINEAR
1001
GradientColor1ACI
1070
     5
1001
GradientColor2ACI
1070
     2
1001
ACAD
1010
0.0
1020
0.0
1030
0.0
  0
LINE
  5
3032803
330
1F
100
AcDbEntity
  8
0
 62
    40
420
 16308017
100
AcDbLine
 10
2574.875825553329
 20
2406.962568812085
 30
0.0
 11
2568.818990081972
 21
2406.962568812085
 31
0.0
  0
HATCH
  5
3032804
330
1F
100
AcDbEntity
  8
0
 62
     2
420
 15854367
100
AcDbHatch
 10
0.0
 20
0.0
 30
0.0
210
0.0
220
0.0
230
1.0
  2
SOLID
 70
     1
 71
     0
 91
        1
 92
        7
 72
     0
 73
     1
 93
       12
 10
2509.234795916205
 20
2410.40256881209
 10
2509.234642088254
 20
2410.40256881209
 10
2509.234642088254
 20
2406.96256881209
 10
2559.234642088254
 20
2406.962568812087
 10
2559.234642088254
 20
2410.402568812086
 10
2509.234795916205
 20
2410.40256881209
 10
2509.234488260303
 20
2406.96256881209
 10
2509.234642088254
 20
2406.96256881209
 10
2509.234642088254
 20
2410.40256881209
 10
2503.710676436908
 20
2410.402568812091
 10
2503.710676436908
 20
2406.962568812091
 10
2509.234488260303
 20
2406.96256881209
 97
        0
 75
     1
 76
     1
 47
0.0708128435280217
 98
        1
 10
2506.063761539824
 20
2408.372335920984
450
        0
451
        0
460
0.0
461
0.0
452
        0
462
0.0
453
        2
463
0.0
 63
     5
421
      255
463
1.0
 63
     2
421
 16776960
470
LINEAR
1001
GradientColor1ACI
1070
     5
1001
GradientColor2ACI
1070
     2
1001
ACAD
1010
0.0
1020
0.0
1030
0.0
  0
LINE
  5
3032805
330
1F
100
AcDbEntity
  8
0
 62
    40
420
 16308017
100
AcDbLine
 10
2567.108264648154
 20
2406.962568812085
 30
0.0
 11
2503.710676436908
 21
2406.962568812091
 31
0.0
  0
LINE
  5
3032806
102
{ACAD_REACTORS
330
30327F8
330
30327F9
330
3032844
102
}
330
1F
100
AcDbEntity
  8
0
100
AcDbLine
 10
2559.234642088254
 20
2412.682568812082
 30
0.0
 11
2559.234642088254
 21
2404.682568812083
 31
0.0
  0
HATCH
  5
3032807
330
1F
100
AcDbEntity
  8
0
 62
    32
420
 13461800
100
AcDbHatch
 10
0.0
 20
0.0
 30
0.0
210
0.0
220
0.0
230
1.0
  2
SOLID
 70
     1
 71
     1
 91
        2
 92
        7
 72
     1
 73
     1
 93
        4
 10
2574.875825553329
 20
2410.562568812086
 42
0.0
 10
2574.875825553329
 20
2411.842568812086
 42
0.0
 10
2573.515825553329
 20
2411.842568812085
 42
1.0
 10
2573.515825553329
 20
2410.562568812086
 42
0.0
 97
        4
330
3032816
330
3032817
330
3032815
330
3032808
 92
        7
 72
     1
 73
     1
 93
        4
 10
2573.515825553329
 20
2406.802568812086
 42
1.0
 10
2573.515825553329
 20
2405.522568812086
 42
0.0
 10
2574.875825553329
 20
2405.522568812086
 42
0.0
 10
2574.875825553329
 20
2406.802568812086
 42
0.0
 97
        4
330
3032818
330
303281A
330
3032819
330
3032808
 75
     1
 76
     1
 47
0.0451853612174112
 98
        2
 10
2574.157073680859
 20
2411.082128306153
 10
2574.301798564825
 20
2406.238254434072
450
        0
451
        0
460
0.0
461
0.0
452
        0
462
0.0
453
        2
463
0.0
 63
     5
421
      255
463
1.0
 63
     2
421
 16776960
470
LINEAR
1001
GradientColor1ACI
1070
     5
1001
GradientColor2ACI
1070
     2
1001
ACAD
1010
0.0
1020
0.0
1030
0.0
  0
LINE
  5
3032808
102
{ACAD_REACTORS
330
3032807
330
303283E
330
3032841
102
}
330
1F
100
AcDbEntity
  8
0
100
AcDbLine
 10
2574.875825553329
 20
2412.682568812082
 30
0.0
 11
2574.875825553329
 21
2404.682568812083
 31
0.0
  0
HATCH
  5
3032809
330
1F
100
AcDbEntity
  8
0
 62
    32
420
 13461800
100
AcDbHatch
 10
0.0
 20
0.0
 30
0.0
210
0.0
220
0.0
230
1.0
  2
SOLID
 70
     1
 71
     0
 91
        2
 92
        7
 72
     1
 73
     1
 93
        4
 10
2505.070676436908
 20
2411.842568812085
 42
0.0
 10
2503.710676436908
 20
2411.842568812085
 42
0.0
 10
2503.710676436908
 20
2410.562568812085
 42
0.0
 10
2505.070676436908
 20
2410.562568812086
 42
1.0
 97
        0
 92
        7
 72
     1
 73
     1
 93
        4
 10
2505.070676436908
 20
2406.802568812085
 42
0.0
 10
2503.710676436908
 20
2406.802568812086
 42
0.0
 10
2503.710676436908
 20
2405.522568812085
 42
0.0
 10
2505.070676436908
 20
2405.522568812086
 42
1.0
 97
        0
 75
     1
 76
     1
 47
0.0312460492036022
 98
        2
 10
2504.925880150862
 20
2411.243665644573
 10
2504.524167465029
 20
2405.924277806521
450
        0
451
        0
460
0.0
461
0.0
452
        0
462
0.0
453
        2
463
0.0
 63
     5
421
      255
463
1.0
 63
     2
421
 16776960
470
LINEAR
1001
GradientColor1ACI
1070
     5
1001
GradientColor2ACI
1070
     2
1001
ACAD
1010
0.0
1020
0.0
1030
0.0
  0
LINE
  5
303280A
102
{ACAD_REACTORS
330
303283E
102
}
330
1F
100
AcDbEntity
  8
0
100
AcDbLine
 10
2503.710676436908
 20
2412.682568812082
 30
0.0
 11
2503.710676436908
 21
2404.682568812082
 31
0.0
  0
LINE
  5
303280B
330
1F
100
AcDbEntity
  8
0
 62
    40
420
 16308017
100
AcDbLine
 10
2574.875825553329
 20
2410.402568812086
 30
0.0
 11
2567.344937813292
 21
2410.402568812086
 31
0.0
  0
LINE
  5
303280C
330
1F
100
AcDbEntity
  8
0
 62
    40
420
 16308017
100
AcDbLine
 10
2574.875825553329
 20
2410.402568812086
 30
0.0
 11
2567.344937813292
 21
2410.402568812086
 31
0.0
  0
LINE
  5
303280D
330
1F
100
AcDbEntity
  8
0
 62
    40
420
 16308017
100
AcDbLine
 10
2565.639810429701
 20
2410.402568812086
 30
0.0
 11
2503.710676436908
 21
2410.402568812091
 31
0.0
  0
ARC
  5
303280E
102
{ACAD_REACTORS
330
30327F8
102
}
330
1F
100
AcDbEntity
  8
0
100
AcDbCircle
 10
2557.874642088254
 20
2406.162568812086
 30
0.0
 40
0.6399999999999637
100
AcDbArc
 50
90.0
 51
270.0
  0
LINE
  5
303280F
330
1F
100
AcDbEntity
  8
0
100
AcDbLine
 10
2505.070676436908
 20
2410.562568812086
 30
0.0
 11
2503.710676436907
 21
2410.562568812085
 31
0.0
  0
LINE
  5
3032810
330
1F
100
AcDbEntity
  8
0
100
AcDbLine
 10
2505.070676436908
 20
2411.842568812085
 30
0.0
 11
2503.710676436907
 21
2411.842568812085
 31
0.0
  0
ARC
  5
3032811
330
1F
100
AcDbEntity
  8
0
100
AcDbCircle
 10
2505.070676436908
 20
2411.202568812085
 30
0.0
 40
0.6399999999999637
100
AcDbArc
 50
270.0
 51
90.0
  0
LINE
  5
3032812
330
1F
100
AcDbEntity
  8
0
100
AcDbLine
 10
2505.070676436908
 20
2406.802568812085
 30
0.0
 11
2503.710676436907
 21
2406.802568812086
 31
0.0
  0
LINE
  5
3032813
330
1F
100
AcDbEntity
  8
0
100
AcDbLine
 10
2505.070676436908
 20
2405.522568812086
 30
0.0
 11
2503.710676436907
 21
2405.522568812085
 31
0.0
  0
ARC
  5
3032814
330
1F
100
AcDbEntity
  8
0
100
AcDbCircle
 10
2505.070676436908
 20
2406.162568812086
 30
0.0
 40
0.6399999999999637
100
AcDbArc
 50
270.0
 51
90.0
  0
LINE
  5
3032815
102
{ACAD_REACTORS
330
3032807
102
}
330
1F
100
AcDbEntity
  8
0
100
AcDbLine
 10
2573.515825553329
 20
2410.562568812086
 30
0.0
 11
2574.87582555333
 21
2410.562568812086
 31
0.0
  0
LINE
  5
3032816
102
{ACAD_REACTORS
330
3032807
102
}
330
1F
100
AcDbEntity
  8
0
100
AcDbLine
 10
2573.515825553329
 20
2411.842568812085
 30
0.0
 11
2574.87582555333
 21
2411.842568812086
 31
0.0
  0
ARC
  5
3032817
102
{ACAD_REACTORS
330
3032807
102
}
330
1F
100
AcDbEntity
  8
0
100
AcDbCircle
 10
2573.515825553329
 20
2411.202568812086
 30
0.0
 40
0.6399999999999637
100
AcDbArc
 50
90.0
 51
270.0
  0
LINE
  5
3032818
102
{ACAD_REACTORS
330
3032807
102
}
330
1F
100
AcDbEntity
  8
0
100
AcDbLine
 10
2573.515825553329
 20
2406.802568812086
 30
0.0
 11
2574.87582555333
 21
2406.802568812086
 31
0.0
  0
LINE
  5
3032819
102
{ACAD_REACTORS
330
3032807
102
}
330
1F
100
AcDbEntity
  8
0
100
AcDbLine
 10
2573.515825553329
 20
2405.522568812086
 30
0.0
 11
2574.87582555333
 21
2405.522568812086
 31
0.0
  0
ARC
  5
303281A
102
{ACAD_REACTORS
330
3032807
102
}
330
1F
100
AcDbEntity
  8
0
100
AcDbCircle
 10
2573.515825553329
 20
2406.162568812086
 30
0.0
 40
0.6399999999999637
100
AcDbArc
 50
90.0
 51
270.0
  0
MTEXT
  5
303281B
330
1F
100
AcDbEntity
  8
0
100
AcDbMText
 10
2506.024170458672
 20
2412.176922015229
 30
0.0
 40
1.28
 41
5.312716057959278
 46
0.0
 71
     1
 72
     5
  1
+24v
 73
     1
 44
1.0
101
Embedded Object
 70
     1
 10
1.0
 20
0.0
 30
0.0
 11
2506.024170458672
 21
2412.176922015229
 31
0.0
 40
5.312716057959278
 41
0.0
 42
3.806821282401092
 43
1.285238744884038
 71
     2
 72
     1
 44
5.312716057959278
 45
12.5
 73
     0
 74
     0
 46
0.0
  0
MTEXT
  5
303281C
330
1F
100
AcDbEntity
  8
0
100
AcDbMText
 10
2506.525215399812
 20
2406.920867050249
 30
0.0
 40
1.28
 41
5.312716057959278
 46
0.0
 71
     1
 72
     5
  1
-
 73
     1
 44
1.0
101
Embedded Object
 70
     1
 10
1.0
 20
0.0
 30
0.0
 11
2506.525215399812
 21
2406.920867050249
 31
0.0
 40
5.312716057959278
 41
0.0
 42
0.4828376534788542
 43
1.28
 71
     2
 72
     1
 44
5.312716057959278
 45
12.5
 73
     0
 74
     0
 46
0.0
  0
MTEXT
  5
303281D
330
1F
100
AcDbEntity
  8
0
100
AcDbMText
 10
2561.742495445236
 20
2412.063620447344
 30
0.0
 40
1.28
 41
5.312716057959278
 46
0.0
 71
     1
 72
     5
  1
+24v
 73
     1
 44
1.0
101
Embedded Object
 70
     1
 10
1.0
 20
0.0
 30
0.0
 11
2561.742495445236
 21
2412.063620447344
 31
0.0
 40
5.312716057959278
 41
0.0
 42
3.806821282401092
 43
1.285238744884038
 71
     2
 72
     1
 44
5.312716057959278
 45
12.5
 73
     0
 74
     0
 46
0.0
  0
MTEXT
  5
303281E
330
1F
100
AcDbEntity
  8
0
100
AcDbMText
 10
2562.243540386376
 20
2406.807565482364
 30
0.0
 40
1.28
 41
5.312716057959278
 46
0.0
 71
     1
 72
     5
  1
-
 73
     1
 44
1.0
101
Embedded Object
 70
     1
 10
1.0
 20
0.0
 30
0.0
 11
2562.243540386376
 21
2406.807565482364
 31
0.0
 40
5.312716057959278
 41
0.0
 42
0.4828376534788542
 43
1.28
 71
     2
 72
     1
 44
5.312716057959278
 45
12.5
 73
     0
 74
     0
 46
0.0
  0
MTEXT
  5
303281F
330
1F
100
AcDbEntity
  8
0
100
AcDbMText
 10
2553.047575940114
 20
2412.063620447344
 30
0.0
 40
1.28
 41
5.312716057959278
 46
0.0
 71
     1
 72
     5
  1
+24v
 73
     1
 44
1.0
101
Embedded Object
 70
     1
 10
1.0
 20
0.0
 30
0.0
 11
2553.047575940114
 21
2412.063620447344
 31
0.0
 40
5.312716057959278
 41
0.0
 42
3.806821282401092
 43
1.285238744884038
 71
     2
 72
     1
 44
5.312716057959278
 45
12.5
 73
     0
 74
     0
 46
0.0
  0
MTEXT
  5
3032820
330
1F
100
AcDbEntity
  8
0
100
AcDbMText
 10
2556.225743790131
 20
2406.807565482364
 30
0.0
 40
1.28
 41
5.312716057959278
 46
0.0
 71
     3
 72
     5
  1
-
 73
     1
 44
1.0
101
Embedded Object
 70
     3
 10
1.0
 20
0.0
 30
0.0
 11
2556.225743790131
 21
2406.807565482364
 31
0.0
 40
5.312716057959278
 41
0.0
 42
0.4828376534788542
 43
1.28
 71
     2
 72
     1
 44
5.312716057959278
 45
12.5
 73
     0
 74
     0
 46
0.0
  0
SPLINE
  5
3032821
330
1F
100
AcDbEntity
  8
0
100
AcDbSpline
210
0.0
220
0.0
230
1.0
 70
     8
 71
     3
 72
    11
 73
     7
 74
     0
 42
0.000000001
 43
0.0000000001
 40
0.0909466843251181
 40
0.0909466843251181
 40
0.0909466843251181
 40
0.0909466843251181
 40
1.0
 40
2.0
 40
3.0
 40
3.259696235708386
 40
3.259696235708386
 40
3.259696235708386
 40
3.259696235708386
 10
2566.451359519208
 20
2412.682568812082
 30
0.0
 10
2564.952928546292
 20
2410.212190318691
 30
0.0
 10
2566.865201381446
 20
2408.993837209721
 30
0.0
 10
2567.810498452597
 20
2407.820312207842
 30
0.0
 10
2566.742445193627
 20
2406.464070485391
 30
0.0
 10
2566.217362400164
 20
2405.225068998065
 30
0.0
 10
2566.118050951565
 20
2404.682568812082
 30
0.0
  0
SPLINE
  5
3032822
330
1F
100
AcDbEntity
  8
0
100
AcDbSpline
210
0.0
220
0.0
230
1.0
 70
     8
 71
     3
 72
    11
 73
     7
 74
     0
 42
0.000000001
 43
0.0000000001
 40
0.0909466843251181
 40
0.0909466843251181
 40
0.0909466843251181
 40
0.0909466843251181
 40
1.0
 40
2.0
 40
3.0
 40
3.197207875807761
 40
3.197207875807761
 40
3.197207875807761
 40
3.197207875807761
 10
2568.156486902799
 20
2412.682568812082
 30
0.0
 10
2566.658055929884
 20
2410.212190318691
 30
0.0
 10
2568.570328765036
 20
2408.993837209721
 30
0.0
 10
2569.515625836188
 20
2407.820312207842
 30
0.0
 10
2568.477107917138
 20
2406.501575225862
 30
0.0
 10
2567.974757220371
 20
2405.180456746752
 30
0.0
 10
2567.896337266267
 20
2404.682568812081
 30
0.0
  0
HATCH
  5
3032823
330
1F
100
AcDbEntity
  8
0
 62
     7
100
AcDbHatch
 10
0.0
 20
0.0
 30
0.0
210
0.0
220
0.0
230
1.0
  2
SOLID
 70
     1
 71
     0
 91
        1
 92
        7
 72
     0
 73
     1
 93
        4
 10
2589.711762596115
 20
2404.682568812083
 10
2589.911762596115
 20
2404.682568812083
 10
2589.911762596115
 20
2412.202568812082
 10
2589.711762596115
 20
2412.202568812082
 97
        0
 75
     1
 76
     1
 47
0.0393067359979577
 98
        1
 10
2589.809207537074
 20
2408.864089384894
450
        0
451
        0
460
0.0
461
0.0
452
        0
462
0.0
453
        2
463
0.0
 63
     5
421
      255
463
1.0
 63
     2
421
 16776960
470
LINEAR
1001
GradientColor1ACI
1070
     5
1001
GradientColor2ACI
1070
     2
1001
ACAD
1010
0.0
1020
0.0
1030
0.0
  0
LINE
  5
3032824
330
1F
100
AcDbEntity
  8
0
100
AcDbLine
 10
2589.911762596115
 20
2404.682568812083
 30
0.0
 11
2589.911762596115
 21
2412.202568812082
 31
0.0
  0
HATCH
  5
3032825
330
1F
100
AcDbEntity
  8
0
 62
     2
420
 15854367
100
AcDbHatch
 10
0.0
 20
0.0
 30
0.0
210
0.0
220
0.0
230
1.0
  2
SOLID
 70
     1
 71
     1
 91
        1
 92
        7
 72
     1
 73
     1
 93
        2
 10
2589.711762596115
 20
2406.674362329747
 42
0.0
 10
2589.711762596115
 20
2410.22488153475
 42
0.6644757302439963
 97
        2
330
3032828
330
3032826
 75
     1
 76
     1
 47
0.0689139367474578
 98
        1
 10
2588.930868102999
 20
2408.492672396834
450
        0
451
        0
460
0.0
461
0.0
452
        0
462
0.0
453
        2
463
0.0
 63
     5
421
      255
463
1.0
 63
     2
421
 16776960
470
LINEAR
1001
GradientColor1ACI
1070
     5
1001
GradientColor2ACI
1070
     2
1001
ACAD
1010
0.0
1020
0.0
1030
0.0
  0
LINE
  5
3032826
102
{ACAD_REACTORS
330
3032825
102
}
330
1F
100
AcDbEntity
  8
0
100
AcDbLine
 10
2589.711762596115
 20
2404.682568812083
 30
0.0
 11
2589.711762596115
 21
2412.202568812082
 31
0.0
  0
DIMENSION
  5
3032827
330
1F
100
AcDbEntity
  8
0
 62
     5
100
AcDbDimension
280
     0
  2
*D27
 10
2589.911762596115
 20
2398.775380226303
 30
0.0
 11
2602.560875829403
 21
2398.775380226303
 31
0.0
 70
   160
  1
2mm
 71
     5
 42
1.379616920744865
 73
     0
 74
     0
 75
     0
  3
ISO-25
100
AcDbAlignedDimension
 13
2588.53214567537
 23
2408.449621932248
 33
0.0
 14
2589.911762596115
 24
2404.682568812083
 34
0.0
100
AcDbRotatedDimension
  0
ARC
  5
3032828
102
{ACAD_REACTORS
330
3032825
102
}
330
1F
100
AcDbEntity
  8
0
100
AcDbCircle
 10
2590.457788931281
 20
2408.449621932248
 30
0.0
 40
1.925643255910986
100
AcDbArc
 50
112.7938534737209
 51
247.2061465262789
  0
LINE
  5
3032829
102
{ACAD_REACTORS
330
303283E
102
}
330
1F
100
AcDbEntity
  8
0
100
AcDbLine
 10
2503.710676436908
 20
2412.682568812082
 30
0.0
 11
2499.719606920097
 21
2410.122667292566
 31
0.0
  0
LINE
  5
303282A
330
1F
100
AcDbEntity
  8
0
100
AcDbLine
 10
2499.719606920097
 20
2410.122667292566
 30
0.0
 11
2499.719606920097
 21
2407.210667292566
 31
0.0
  0
LINE
  5
303282B
102
{ACAD_REACTORS
330
3032844
102
}
330
1F
100
AcDbEntity
  8
0
100
AcDbLine
 10
2499.719606920097
 20
2407.210667292566
 30
0.0
 11
2503.710107678294
 21
2404.666667292567
 31
0.0
  0
HATCH
  5
303282C
330
1F
100
AcDbEntity
  8
0
 62
     1
100
AcDbHatch
 10
0.0
 20
0.0
 30
0.0
210
0.0
220
0.0
230
1.0
  2
SOLID
 70
     1
 71
     0
 91
        2
 92
        5
 93
        4
 72
     4
 94
        3
 73
     0
 74
     0
 95
       10
 96
        6
 40
0.0321245880806718
 40
0.0321245880806718
 40
0.0321245880806718
 40
0.0321245880806718
 40
0.0591644787142629
 40
0.907200421158766
 40
2.437431798847772
 40
2.437431798847772
 40
2.437431798847772
 40
2.437431798847772
 10
2490.839413924784
 20
2408.666667292568
 10
2490.834150779104
 20
2408.672821246346
 10
2490.662663978531
 20
2408.871514608873
 10
2490.095208126042
 20
2409.375115753161
 10
2490.784588058007
 20
2409.830212423075
 10
2491.238795160305
 20
2410.122667292567
 97
        0
 72
     1
 10
2491.238795160306
 20
2410.122667292569
 11
2484.732614841655
 21
2410.122667292569
 72
     1
 10
2484.732614841655
 20
2410.122667292569
 11
2484.732614841655
 21
2408.66666729257
 72
     1
 10
2484.732614841655
 20
2408.666667292569
 11
2490.839413924784
 21
2408.666667292568
 97
        0
 92
        5
 93
        4
 72
     1
 10
2499.719606920098
 20
2410.122667292567
 11
2491.82076541828
 21
2410.122667292568
 72
     4
 94
        3
 73
     0
 74
     0
 95
        9
 96
        5
 40
0.0
 40
0.0
 40
0.0
 40
0.0
 40
1.562355965769678
 40
2.410391908214181
 40
2.410391908214403
 40
2.410391908214403
 40
2.410391908214403
 10
2491.82076541828
 20
2410.122667292569
 10
2491.356794864432
 20
2409.824080650665
 10
2490.640984323719
 20
2409.36342325804
 10
2491.209639749099
 20
2408.858757526475
 10
2491.376874470481
 20
2408.666667292568
 97
        0
 72
     1
 10
2491.376874470481
 20
2408.666667292568
 11
2499.719606920098
 21
2408.666667292566
 72
     1
 10
2499.719606920098
 20
2408.666667292565
 11
2499.719606920098
 21
2410.122667292567
 97
        0
 75
     1
 76
     1
 47
0.0672325222642974
 98
        2
 10
2489.204746399331
 20
2409.780085967714
 10
2492.595949329133
 20
2409.618724483537
450
        0
451
        0
460
0.0
461
0.0
452
        0
462
0.0
453
        2
463
0.0
 63
     5
421
      255
463
1.0
 63
     2
421
 16776960
470
LINEAR
1001
GradientColor1ACI
1070
     5
1001
GradientColor2ACI
1070
     2
1001
ACAD
1010
0.0
1020
0.0
1030
0.0
  0
LINE
  5
303282D
330
1F
100
AcDbEntity
  8
0
100
AcDbLine
 10
2499.719606920098
 20
2410.122667292567
 30
0.0
 11
2491.820765418279
 21
2410.122667292569
 31
0.0
  0
LINE
  5
303282E
330
1F
100
AcDbEntity
  8
0
100
AcDbLine
 10
2491.238795160306
 20
2410.122667292569
 30
0.0
 11
2484.732614841655
 21
2410.122667292569
 31
0.0
  0
HATCH
  5
303282F
330
1F
100
AcDbEntity
  8
0
 62
    18
420
        0
100
AcDbHatch
 10
0.0
 20
0.0
 30
0.0
210
0.0
220
0.0
230
1.0
  2
SOLID
 70
     1
 71
     0
 91
        2
 92
        5
 93
        4
 72
     4
 94
        3
 73
     0
 74
     0
 95
        9
 96
        5
 40
2.437431798847772
 40
2.437431798847772
 40
2.437431798847772
 40
2.437431798847772
 40
3.519652558609159
 40
4.425091217335518
 40
4.425091217335518
 40
4.425091217335518
 40
4.425091217335518
 10
2490.799075887555
 20
2407.229085739054
 10
2490.980743573938
 20
2407.49133318882
 10
2491.314403305205
 20
2407.972989642738
 10
2491.015651899641
 20
2408.460600347609
 10
2490.839413924784
 20
2408.666667292568
 97
        0
 72
     1
 10
2490.839413924784
 20
2408.666667292568
 11
2484.732614841655
 21
2408.666667292569
 72
     1
 10
2484.732614841655
 20
2408.666667292569
 11
2484.732614841656
 21
2407.210667292566
 72
     1
 10
2484.732614841656
 20
2407.210667292566
 11
2490.799075887555
 21
2407.229085739053
 97
        0
 92
        5
 93
        4
 72
     1
 10
2499.719606920097
 20
2408.666667292565
 11
2491.37687447048
 21
2408.666667292568
 72
     4
 94
        3
 73
     0
 74
     0
 95
        9
 96
        5
 40
2.410391908214181
 40
2.410391908214403
 40
2.410391908214403
 40
2.410391908214403
 40
3.342870457574132
 40
4.425091217335518
 40
4.425091217335518
 40
4.425091217335518
 40
4.425091217335518
 10
2491.376874470481
 20
2408.666667292567
 10
2491.560761476433
 20
2408.455449803196
 10
2491.872297347972
 20
2407.961123595378
 10
2491.534098548011
 20
2407.472914742334
 10
2491.352430861629
 20
2407.210667292568
 97
        0
 72
     1
 10
2491.352430861629
 20
2407.210667292569
 11
2499.719606920097
 21
2407.210667292567
 72
     1
 10
2499.719606920097
 20
2407.210667292566
 11
2499.719606920097
 21
2408.666667292565
 97
        0
 75
     1
 76
     1
 47
0.0672325222642974
 98
        2
 10
2487.105425600649
 20
2407.682435674779
 10
2496.902206652099
 20
2407.521074190602
450
        0
451
        0
460
0.0
461
0.0
452
        0
462
0.0
453
        2
463
0.0
 63
     5
421
      255
463
1.0
 63
     2
421
 16776960
470
LINEAR
1001
GradientColor1ACI
1070
     5
1001
GradientColor2ACI
1070
     2
1001
ACAD
1010
0.0
1020
0.0
1030
0.0
  0
LINE
  5
3032830
330
1F
100
AcDbEntity
  8
0
100
AcDbLine
 10
2499.719606920097
 20
2408.666667292565
 30
0.0
 11
2491.376874470481
 21
2408.666667292568
 31
0.0
  0
LINE
  5
3032831
330
1F
100
AcDbEntity
  8
0
100
AcDbLine
 10
2490.839413924785
 20
2408.666667292568
 30
0.0
 11
2484.732614841655
 21
2408.666667292569
 31
0.0
  0
LINE
  5
3032832
330
1F
100
AcDbEntity
  8
0
100
AcDbLine
 10
2499.719606920098
 20
2407.210667292566
 30
0.0
 11
2491.352430861629
 21
2407.210667292569
 31
0.0
  0
LINE
  5
3032833
330
1F
100
AcDbEntity
  8
0
100
AcDbLine
 10
2484.732614841655
 20
2410.122667292569
 30
0.0
 11
2484.732614841655
 21
2408.666667292568
 31
0.0
  0
LINE
  5
3032834
330
1F
100
AcDbEntity
  8
0
100
AcDbLine
 10
2484.732614841655
 20
2408.666667292568
 30
0.0
 11
2484.732614841656
 21
2407.210667292568
 31
0.0
  0
DIMENSION
  5
3032835
330
1F
100
AcDbEntity
  8
0
100
AcDbDimension
280
     0
  2
*D28
 10
2482.912614841656
 20
2418.624337564737
 30
0.0
 11
2493.311645639282
 21
2421.062400320535
 31
0.0
 70
    32
  1
150mm
 71
     5
 42
20.79806159525288
 73
     0
 74
     0
 75
     0
  3
ISO-25
100
AcDbAlignedDimension
 13
2503.710676436908
 23
2412.682568812082
 33
0.0
 14
2482.912614841656
 24
2409.654667292568
 34
0.0
100
AcDbRotatedDimension
  0
SPLINE
  5
3032836
330
1F
100
AcDbEntity
  8
0
100
AcDbSpline
210
0.0
220
0.0
230
1.0
 70
  1064
 71
     3
 72
    11
 73
     7
 74
     5
 42
0.000000001
 43
0.0000000001
 44
0.0000000001
 40
0.0
 40
0.0
 40
0.0
 40
0.0
 40
1.249884772616075
 40
1.928313526571733
 40
2.674296366059652
 40
3.54007297386858
 40
3.54007297386858
 40
3.54007297386858
 40
3.54007297386858
 10
2491.82076541828
 20
2410.122667292569
 30
0.0
 10
2491.356794864432
 20
2409.824080650665
 30
0.0
 10
2490.640984323719
 20
2409.36342325804
 30
0.0
 10
2491.429628450661
 20
2408.66352372749
 30
0.0
 10
2491.872297347973
 20
2407.961123595379
 30
0.0
 10
2491.534098548011
 20
2407.472914742335
 30
0.0
 10
2491.352430861629
 20
2407.210667292568
 30
0.0
 11
2491.82076541828
 21
2410.122667292569
 31
0.0
 11
2490.968497641693
 21
2409.208418102353
 31
0.0
 11
2491.376874470481
 21
2408.666667292568
 31
0.0
 11
2491.709957225888
 21
2407.999174764624
 31
0.0
 11
2491.352430861629
 21
2407.210667292568
 31
0.0
  0
SPLINE
  5
3032837
330
1F
100
AcDbEntity
  8
0
100
AcDbSpline
210
0.0
220
0.0
230
1.0
 70
  1064
 71
     3
 72
    11
 73
     7
 74
     5
 42
0.000000001
 43
0.0000000001
 44
0.0000000001
 40
0.0
 40
0.0
 40
0.0
 40
0.0
 40
1.249884772616075
 40
1.928313526571733
 40
2.674296366059042
 40
3.540072973868196
 40
3.540072973868196
 40
3.540072973868196
 40
3.540072973868196
 10
2491.267410444206
 20
2410.141085739054
 30
0.0
 10
2490.803439890358
 20
2409.842499097151
 30
0.0
 10
2490.087629349645
 20
2409.381841704526
 30
0.0
 10
2490.876273476587
 20
2408.681942173977
 30
0.0
 10
2491.318942373899
 20
2407.979542041864
 30
0.0
 10
2490.980743573938
 20
2407.49133318882
 30
0.0
 10
2490.799075887555
 20
2407.229085739054
 30
0.0
 11
2491.267410444206
 21
2410.141085739054
 31
0.0
 11
2490.415142667619
 21
2409.226836548839
 31
0.0
 11
2490.823519496407
 21
2408.685085739053
 31
0.0
 11
2491.156602251814
 21
2408.01759321111
 31
0.0
 11
2490.799075887555
 21
2407.229085739054
 31
0.0
  0
LINE
  5
3032838
330
1F
100
AcDbEntity
  8
0
100
AcDbLine
 10
2484.732614841656
 20
2407.210667292566
 30
0.0
 11
2490.799075887555
 21
2407.229085739054
 31
0.0
  0
HATCH
  5
3032839
330
1F
100
AcDbEntity
  8
0
 62
    18
420
        0
100
AcDbHatch
 10
0.0
 20
0.0
 30
0.0
210
0.0
220
0.0
230
1.0
  2
SOLID
 70
     1
 71
     0
 91
        2
 92
        7
 72
     0
 73
     1
 93
        4
 10
2482.912614841656
 20
2409.654667292568
 10
2482.912614841656
 20
2409.134667292568
 10
2484.732614841655
 20
2409.134667292568
 10
2484.732614841655
 20
2409.654667292568
 97
        0
 92
        7
 72
     0
 73
     1
 93
        4
 10
2484.732614841655
 20
2407.678667292568
 10
2484.732614841655
 20
2408.198667292567
 10
2482.912614841656
 20
2408.198667292567
 10
2482.912614841656
 20
2407.678667292568
 97
        0
 75
     1
 76
     1
 47
0.0265083126140921
 98
        2
 10
2484.331643842148
 20
2409.340543752996
 10
2484.161856720712
 20
2407.813661321491
450
        0
451
        0
460
0.0
461
0.0
452
        0
462
0.0
453
        2
463
0.0
 63
     5
421
      255
463
1.0
 63
     2
421
 16776960
470
LINEAR
1001
GradientColor1ACI
1070
     5
1001
GradientColor2ACI
1070
     2
1001
ACAD
1010
0.0
1020
0.0
1030
0.0
  0
LWPOLYLINE
  5
303283A
330
1F
100
AcDbEntity
  8
0
100
AcDbPolyline
 90
        4
 70
     1
 43
0.0
 10
2484.732614841655
 20
2409.654667292568
 10
2482.912614841656
 20
2409.654667292568
 10
2482.912614841656
 20
2409.134667292568
 10
2484.732614841655
 20
2409.134667292568
  0
LWPOLYLINE
  5
303283B
330
1F
100
AcDbEntity
  8
0
100
AcDbPolyline
 90
        4
 70
     1
 43
0.0
 10
2484.732614841655
 20
2408.198667292567
 10
2482.912614841656
 20
2408.198667292567
 10
2482.912614841656
 20
2407.678667292568
 10
2484.732614841655
 20
2407.678667292568
  0
DIMENSION
  5
303283C
102
{ACAD_XDICTIONARY
360
303283D
102
}
102
{ACAD_REACTORS
330
303283E
102
}
330
1F
100
AcDbEntity
  8
0
100
AcDbDimension
280
     0
  2
*D29
 10
2574.875825553329
 20
2418.624337564737
 30
0.0
 11
2539.293250995118
 21
2421.062400320535
 31
0.0
 70
    32
  1
4572mm
 71
     5
 42
71.16514911642116
 73
     0
 74
     0
 75
     0
  3
ISO-25
100
AcDbAlignedDimension
 13
2503.710676436908
 23
2412.682568812082
 33
0.0
 14
2574.875825553329
 24
2412.682568812082
 34
0.0
100
AcDbRotatedDimension
  0
DIMENSION
  5
303283F
102
{ACAD_XDICTIONARY
360
3032840
102
}
102
{ACAD_REACTORS
330
3032841
102
}
330
1F
100
AcDbEntity
  8
0
100
AcDbDimension
280
     0
  2
*D30
 10
2581.925330252089
 20
2404.682568812083
 30
0.0
 11
2579.487267496292
 21
2408.682568812082
 31
0.0
 70
    32
 71
     5
 42
7.999999999999545
 73
     0
 74
     0
 75
     0
  3
ISO-25
100
AcDbAlignedDimension
 13
2574.875825553329
 23
2412.682568812082
 33
0.0
 14
2574.875825553329
 24
2404.682568812083
 34
0.0
 50
90.0
100
AcDbRotatedDimension
  0
DIMENSION
  5
3032842
102
{ACAD_XDICTIONARY
360
3032843
102
}
102
{ACAD_REACTORS
330
3032844
102
}
330
1F
100
AcDbEntity
  8
0
100
AcDbDimension
280
     0
  2
*D31
 10
2559.234642088254
 20
2395.887192212782
 30
0.0
 11
2531.472374883274
 21
2398.325254968581
 31
0.0
 70
    32
  1
50.8mm
 71
     5
 42
55.52453440995987
 73
     0
 74
     0
 75
     0
  3
ISO-25
100
AcDbAlignedDimension
 13
2503.710107678294
 23
2404.666667292567
 33
0.0
 14
2559.234642088254
 24
2404.666667292567
 34
0.0
100
AcDbRotatedDimension
  0
ENDSEC
  0
SECTION
  2
OBJECTS
  0
DICTIONARY
  5
C
330
0
100
AcDbDictionary
281
     1
  3
ACAD_CIP_PREVIOUS_PRODUCT_INFO
350
216
  3
ACAD_COLOR
350
6B
  3
ACAD_DETAILVIEWSTYLE
350
21B
  3
ACAD_GROUP
350
D
  3
ACAD_IMAGE_DICT
350
652
  3
ACAD_IMAGE_VARS
350
654
  3
ACAD_LAYOUT
350
1A
  3
ACAD_MATERIAL
350
6A
  3
ACAD_MLEADERSTYLE
350
12D
  3
ACAD_MLINESTYLE
350
17
  3
ACAD_PLOTSETTINGS
350
19
  3
ACAD_PLOTSTYLENAME
350
E
  3
ACAD_SCALELIST
350
10C
  3
ACAD_SECTIONVIEWSTYLE
350
219
  3
ACAD_TABLESTYLE
350
7E
  3
ACAD_VISUALSTYLE
350
EF
  3
ACDB_RECOMPOSE_DATA
350
303292D
  3
AcDbVariableDictionary
350
5E
  0
DICTIONARY
  5
1FF
330
2
100
AcDbDictionary
280
     1
281
     1
  3
ACAD_LAYERSTATES
360
200
  0
DICTIONARY
  5
13C
330
10
100
AcDbDictionary
280
     1
281
     1
  0
DICTIONARY
  5
25CF
330
25CE
100
AcDbDictionary
280
     1
281
     1
  0
DICTIONARY
  5
101F783
330
101F782
100
AcDbDictionary
280
     1
281
     1
  0
DICTIONARY
  5
1CE
330
1F
100
AcDbDictionary
280
     1
281
     1
  3
ACAD_SORTENTS
360
277
  0
DICTIONARY
  5
303283D
330
303283C
100
AcDbDictionary
280
     1
281
     1
  3
ACAD_DIMASSOC
360
303283E
  0
DICTIONARY
  5
3032840
330
303283F
100
AcDbDictionary
280
     1
281
     1
  3
ACAD_DIMASSOC
360
3032841
  0
DICTIONARY
  5
3032843
330
3032842
100
AcDbDictionary
280
     1
281
     1
  3
ACAD_DIMASSOC
360
3032844
  0
XRECORD
  5
216
102
{ACAD_REACTORS
330
C
102
}
330
C
100
AcDbXrecord
280
     1
300
ACD
300
2018
300
ACD_F_S
  0
DICTIONARY
  5
6B
102
{ACAD_REACTORS
330
C
102
}
330
C
100
AcDbDictionary
281
     1
  0
DICTIONARY
  5
21B
102
{ACAD_REACTORS
330
C
102
}
330
C
100
AcDbDictionary
281
     1
  3
Imperial24
350
30326A5
  3
Metric50
350
21C
  0
DICTIONARY
  5
D
102
{ACAD_REACTORS
330
C
102
}
330
C
100
AcDbDictionary
281
     1
  0
DICTIONARY
  5
652
102
{ACAD_REACTORS
330
C
102
}
330
C
100
AcDbDictionary
281
     1
  3
b5a61344a1af7a3fc6c23fe510800f9
350
653
  3
e6938b21ff38e8826c11917f46c2d07
350
20202C2
  3
e7f863d4e83331b672f16dd77d6df5f
350
36AA
  3
e9831b2e6e4af50e92c7685062bc498
350
20202C5
  0
RASTERVARIABLES
  5
654
102
{ACAD_REACTORS
330
C
102
}
330
C
100
AcDbRasterVariables
 90
        0
 70
     1
 71
     1
 72
     1
  0
DICTIONARY
  5
1A
102
{ACAD_REACTORS
330
C
102
}
330
C
100
AcDbDictionary
281
     1
  3
Model
350
22
  3
布局1
350
D3
  3
布局2
350
D7
  0
DICTIONARY
  5
6A
102
{ACAD_REACTORS
330
C
102
}
330
C
100
AcDbDictionary
281
     1
  3
ByBlock
350
ED
  3
ByLayer
350
EC
  3
Global
350
EE
  0
DICTIONARY
  5
12D
102
{ACAD_REACTORS
330
C
102
}
330
C
100
AcDbDictionary
281
     1
  3
Annotative
350
13B
  3
Standard
350
12E
  0
DICTIONARY
  5
17
102
{ACAD_REACTORS
330
C
102
}
330
C
100
AcDbDictionary
281
     1
  3
Standard
350
18
  0
DICTIONARY
  5
19
102
{ACAD_REACTORS
330
C
102
}
330
C
100
AcDbDictionary
281
     1
  0
ACDBDICTIONARYWDFLT
  5
E
102
{ACAD_REACTORS
330
C
102
}
330
C
100
AcDbDictionary
281
     1
  3
Normal
350
F
100
AcDbDictionaryWithDefault
340
F
  0
DICTIONARY
  5
10C
102
{ACAD_REACTORS
330
C
102
}
330
C
100
AcDbDictionary
281
     1
  3
A0
350
10D
  3
A1
350
1BE
  3
A2
350
1BF
  3
A3
350
1C0
  3
A4
350
1C1
  3
A5
350
1C2
  3
A6
350
1C3
  3
A7
350
1C4
  3
A8
350
1C5
  3
A9
350
1C6
  3
B0
350
1C7
  3
B1
350
1C8
  3
B2
350
1C9
  3
B3
350
1CA
  3
B4
350
1CB
  3
B5
350
1CC
  3
B6
350
1CD
  0
DICTIONARY
  5
219
102
{ACAD_REACTORS
330
C
102
}
330
C
100
AcDbDictionary
281
     1
  3
Imperial24
350
30326A4
  3
Metric50
350
21A
  0
DICTIONARY
  5
7E
102
{ACAD_REACTORS
330
C
102
}
330
C
100
AcDbDictionary
281
     1
  3
Standard
350
7F
  0
DICTIONARY
  5
EF
102
{ACAD_REACTORS
330
C
102
}
330
C
100
AcDbDictionary
281
     1
  3
2dWireframe
350
F5
  3
3dWireframe
350
30326A3
  3
Basic
350
F4
  3
Brighten
350
FB
  3
ColorChange
350
FF
  3
Conceptual
350
F8
  3
Dim
350
FA
  3
EdgeColorOff
350
1E6
  3
Facepattern
350
FE
  3
Flat
350
F0
  3
FlatWithEdges
350
F1
  3
Gouraud
350
F2
  3
GouraudWithEdges
350
F3
  3
Hidden
350
F7
  3
JitterOff
350
1E4
  3
Linepattern
350
FD
  3
OverhangOff
350
1E5
  3
Realistic
350
F9
  3
Shaded
350
1F3
  3
Shaded with edges
350
1F2
  3
Shades of Gray
350
1EF
  3
Sketchy
350
1F0
  3
Thicken
350
FC
  3
Wireframe
350
F6
  3
X-Ray
350
1F1
  0
XRECORD
  5
303292D
102
{ACAD_REACTORS
330
C
102
}
330
C
100
AcDbXrecord
280
     1
 90
        1
330
7F
  0
DICTIONARY
  5
5E
102
{ACAD_REACTORS
330
C
102
}
330
C
100
AcDbDictionary
281
     1
  3
CANNOSCALE
350
146
  3
CENTEREXE
350
259
  3
CENTERLTYPEFILE
350
25A
  3
CMLEADERSTYLE
350
145
  3
CTABLESTYLE
350
84
  3
CVIEWDETAILSTYLE
350
227
  3
CVIEWSECTIONSTYLE
350
228
  3
DIMASSOC
350
5F
  3
HIDETEXT
350
63
  3
HPCOLOR
350
27E
  3
HPTRANSPARENCY
350
281
  3
LAYEREVAL
350
1AE
  3
LAYERNOTIFY
350
1AF
  0
DICTIONARY
  5
200
102
{ACAD_REACTORS
330
1FF
102
}
330
1FF
100
AcDbDictionary
281
     1
  0
SORTENTSTABLE
  5
277
102
{ACAD_REACTORS
330
1CE
102
}
330
1CE
100
AcDbSortentsTable
330
1F
331
2022B6B
  5
2022C0D
331
202DC4C
  5
3032334
331
2022818
  5
202295F
331
2022744
  5
20227F6
331
202DC2D
  5
3032333
331
3032140
  5
3032335
  0
DIMASSOC
  5
303283E
102
{ACAD_REACTORS
330
303283D
102
}
330
303283D
100
AcDbDimAssoc
330
303283C
 90
        3
 70
     0
 71
     0
  1
AcDbOsnapPointRef
 72
    11
331
3032829
 73
     2
 91
        0
 40
0.0
 10
0.0
 20
0.0
 30
0.0
332
303280A
 74
     2
 92
        0
 75
     0
  1
AcDbOsnapPointRef
 72
     8
331
3032808
 73
     2
 91
        0
 40
0.0
 10
0.0
 20
0.0
 30
0.0
 75
     1
  1
AcDbOsnapPointRef
 72
    11
331
3032829
 73
     2
 91
        0
 40
0.0
 10
0.0
 20
0.0
 30
0.0
332
303280A
 74
     2
 92
        0
 75
     0
  0
DIMASSOC
  5
3032841
102
{ACAD_REACTORS
330
3032840
102
}
330
3032840
100
AcDbDimAssoc
330
303283F
 90
        2
 70
     0
 71
     0
  1
AcDbOsnapPointRef
 72
     1
331
3032808
 73
     2
 91
        0
 40
1.0
 10
0.0
 20
0.0
 30
2.000000000000000E+50
 75
     0
  0
DIMASSOC
  5
3032844
102
{ACAD_REACTORS
330
3032843
102
}
330
3032843
100
AcDbDimAssoc
330
3032842
 90
        3
 70
     0
 71
     0
  1
AcDbOsnapPointRef
 72
     1
331
303282B
 73
     2
 91
        0
 40
1.0
 10
0.0
 20
0.0
 30
2.000000000000000E+50
 75
     0
  1
AcDbOsnapPointRef
 72
     8
331
3032806
 73
     2
 91
        0
 40
1.001987689939551
 10
0.0
 20
0.0
 30
0.0
 75
     1
  1
AcDbOsnapPointRef
 72
     1
331
303282B
 73
     2
 91
        0
 40
1.0
 10
0.0
 20
0.0
 30
2.000000000000000E+50
 75
     0
  0
ACDBDETAILVIEWSTYLE
  5
30326A5
102
{ACAD_REACTORS
330
21B
102
}
330
21B
100
AcDbModelDocViewStyle
 70
     0
  3
Imperial24
290
     0
300
Imperial24
 90
        0
100
AcDbDetailViewStyle
 70
     0
 71
     0
 90
        3
 71
     1
340
11
 62
   256
 40
0.24
340
0
 62
   256
 40
0.24
300

 40
0.36
280
     3
 71
     2
340
16
 90
       25
 62
   256
 71
     3
340
11
 62
   256
 40
0.24
 90
        1
 40
0.75
 90
        1
300
%<\AcVar ViewType \f "%tc1">% %<\AcVar ViewDetailId>%\PSCALE %<\AcVar ViewScale \f "%sn">%
 71
     4
340
16
 90
       25
 62
   256
340
16
 90
       25
 62
   256
280
     0
  0
ACDBDETAILVIEWSTYLE
  5
21C
102
{ACAD_REACTORS
330
21B
102
}
330
21B
100
AcDbModelDocViewStyle
 70
     0
  3
Metric50
290
     0
300
Metric50
 90
        0
100
AcDbDetailViewStyle
 70
     0
 71
     0
 90
        3
 71
     1
340
11
 62
   256
 40
5.0
340
0
 62
   256
 40
5.0
300

 40
0.0
280
     1
 71
     2
340
16
 90
       25
 62
   256
 71
     3
340
11
 62
   256
 40
5.0
 90
        0
 40
15.0
 90
        1
300
%<\AcVar ViewDetailId>% (%<\AcVar ViewScale \f "%sn">%)
 71
     4
340
16
 90
       25
 62
   256
340
16
 90
       25
 62
   256
280
     0
  0
IMAGEDEF
  5
653
102
{ACAD_REACTORS
330
652
102
}
330
652
100
AcDbRasterImageDef
 90
        0
  1
C:\Users\ADMINI~1\AppData\Local\Temp\WeChat Files\b5a61344a1af7a3fc6c23fe510800f9.png
 10
155.0
 20
128.0
 11
0.2116850127011008
 21
0.2116850127011008
280
     1
281
     2
  0
IMAGEDEF
  5
20202C2
102
{ACAD_REACTORS
330
652
102
}
330
652
100
AcDbRasterImageDef
 90
        0
  1
C:\Users\ADMINI~1\AppData\Local\Temp\WeChat Files\e6938b21ff38e8826c11917f46c2d07.jpg
 10
356.0
 20
370.0
 11
0.0028089887640449
 21
0.0028089887640449
280
     1
281
     0
  0
IMAGEDEF
  5
36AA
102
{ACAD_REACTORS
330
652
102
}
330
652
100
AcDbRasterImageDef
 90
        0
  1
C:\Users\ADMINI~1\AppData\Local\Temp\WeChat Files\e7f863d4e83331b672f16dd77d6df5f.png
 10
718.0
 20
174.0
 11
0.1763979537837361
 21
0.1763979537837361
280
     1
281
     2
  0
IMAGEDEF
  5
20202C5
102
{ACAD_REACTORS
330
652
102
}
330
652
100
AcDbRasterImageDef
 90
        0
  1
C:\Users\ADMINI~1\AppData\Local\Temp\WeChat Files\e9831b2e6e4af50e92c7685062bc498.png
 10
577.0
 20
650.0
 11
0.1763979537837361
 21
0.1763979537837361
280
     1
281
     2
  0
LAYOUT
  5
22
102
{ACAD_XDICTIONARY
360
205
102
}
102
{ACAD_REACTORS
330
1A
102
}
330
1A
100
AcDbPlotSettings
  1

  2
none_device
  4
ISO_A4_(210.00_x_297.00_MM)
  6

 40
7.5
 41
20.0
 42
7.5
 43
20.0
 44
210.0
 45
297.0
 46
11.54999923706054
 47
-13.65000009536743
 48
0.0
 49
0.0
140
0.0
141
0.0
142
1.0
143
8.704084754739808
 70
 11952
 72
     1
 73
     0
 74
     0
  7

 75
     0
147
0.1148885871608098
 76
     0
 77
     2
 78
   300
148
0.0
149
0.0
100
AcDbLayout
  1
Model
 70
     1
 71
     0
 10
0.0
 20
0.0
 11
12.0
 21
9.0
 12
0.0
 22
0.0
 32
0.0
 14
0.0
 24
0.0
 34
0.0
 15
0.0
 25
0.0
 35
0.0
146
0.0
 13
0.0
 23
0.0
 33
0.0
 16
1.0
 26
0.0
 36
0.0
 17
0.0
 27
1.0
 37
0.0
 76
     0
330
1F
331
EA
1001
ACAD_PSEXT
1000
None
1000
None
1000
Not applicable
1000
The layout will not be plotted unless a new plotter configuration name is selected.
1070
     0
  0
LAYOUT
  5
D3
102
{ACAD_REACTORS
330
1A
102
}
330
1A
100
AcDbPlotSettings
  1

  2
C:\Documents and Settings\basas\Application Data\Autodesk\AutoCAD 2005\R16.1\enu\plotters\Default Windows System Printer.pc3
  4

  6

 40
0.0
 41
0.0
 42
0.0
 43
0.0
 44
0.0
 45
0.0
 46
0.0
 47
0.0
 48
0.0
 49
0.0
140
0.0
141
0.0
142
1.0
143
1.0
 70
   688
 72
     0
 73
     0
 74
     5
  7

 75
    16
147
1.0
 76
     0
 77
     2
 78
   300
148
0.0
149
0.0
100
AcDbLayout
  1
布局1
 70
     1
 71
     1
 10
0.0
 20
0.0
 11
12.0
 21
9.0
 12
0.0
 22
0.0
 32
0.0
 14
0.0
 24
0.0
 34
0.0
 15
0.0
 25
0.0
 35
0.0
146
0.0
 13
0.0
 23
0.0
 33
0.0
 16
1.0
 26
0.0
 36
0.0
 17
0.0
 27
1.0
 37
0.0
 76
     0
330
D2
  0
LAYOUT
  5
D7
102
{ACAD_REACTORS
330
1A
102
}
330
1A
100
AcDbPlotSettings
  1

  2
C:\Documents and Settings\basas\Application Data\Autodesk\AutoCAD 2005\R16.1\enu\plotters\Default Windows System Printer.pc3
  4

  6

 40
0.0
 41
0.0
 42
0.0
 43
0.0
 44
0.0
 45
0.0
 46
0.0
 47
0.0
 48
0.0
 49
0.0
140
0.0
141
0.0
142
1.0
143
1.0
 70
   688
 72
     0
 73
     0
 74
     5
  7

 75
    16
147
1.0
 76
     0
 77
     2
 78
   300
148
0.0
149
0.0
100
AcDbLayout
  1
布局2
 70
     1
 71
     2
 10
0.0
 20
0.0
 11
12.0
 21
9.0
 12
0.0
 22
0.0
 32
0.0
 14
0.0
 24
0.0
 34
0.0
 15
0.0
 25
0.0
 35
0.0
146
0.0
 13
0.0
 23
0.0
 33
0.0
 16
1.0
 26
0.0
 36
0.0
 17
0.0
 27
1.0
 37
0.0
 76
     0
330
D6
  0
MATERIAL
  5
ED
102
{ACAD_XDICTIONARY
360
1F9
102
}
102
{ACAD_REACTORS
330
6A
102
}
330
6A
100
AcDbMaterial
  1
ByBlock
 94
       63
  0
MATERIAL
  5
EC
102
{ACAD_XDICTIONARY
360
1F7
102
}
102
{ACAD_REACTORS
330
6A
102
}
330
6A
100
AcDbMaterial
  1
ByLayer
 94
       63
  0
MATERIAL
  5
EE
102
{ACAD_XDICTIONARY
360
173
102
}
102
{ACAD_REACTORS
330
6A
102
}
330
6A
100
AcDbMaterial
  1
Global
 43
0.0007999999797903
 43
0.0
 43
0.0
 43
0.0
 43
0.0
 43
0.0007999999797903
 43
0.0
 43
0.0
 43
0.0
 43
0.0
 43
1.0
 43
0.0
 43
0.0
 43
0.0
 43
0.0
 43
1.0
 49
0.0007999999797903
 49
0.0
 49
0.0
 49
0.0
 49
0.0
 49
0.0007999999797903
 49
0.0
 49
0.0
 49
0.0
 49
0.0
 49
1.0
 49
0.0
 49
0.0
 49
0.0
 49
0.0
 49
1.0
142
0.0007999999797903
142
0.0
142
0.0
142
0.0
142
0.0
142
0.0007999999797903
142
0.0
142
0.0
142
0.0
142
0.0
142
1.0
142
0.0
142
0.0
142
0.0
142
0.0
142
1.0
144
0.0007999999797903
144
0.0
144
0.0
144
0.0
144
0.0
144
0.0007999999797903
144
0.0
144
0.0
144
0.0
144
0.0
144
1.0
144
0.0
144
0.0
144
0.0
144
0.0
144
1.0
 94
       63
1001
ACAD
1070
    -1
1070
     3
1070
     0
1000

1071
        0
1070
     0
  0
MLEADERSTYLE
  5
13B
102
{ACAD_REACTORS
330
12D
102
}
330
12D
100
AcDbMLeaderStyle
179
     2
170
     2
171
     1
172
     0
 90
        2
 40
0.0
 41
0.0
173
     1
 91
-1056964608
340
14
 92
       -2
290
     1
 42
2.0
291
     1
 43
8.0
  3
Standard
 44
4.0
300

342
11
174
     1
178
     1
175
     1
176
     0
 93
-1056964608
 45
4.0
292
     0
297
     0
 46
4.0
 94
-1056964608
 47
1.0
 49
1.0
140
1.0
293
     1
141
0.0
294
     1
177
     0
142
1.0
295
     0
296
     1
143
3.75
271
     0
272
     9
273
     9
298
     0
  0
MLEADERSTYLE
  5
12E
102
{ACAD_REACTORS
330
12D
102
}
330
12D
100
AcDbMLeaderStyle
179
     2
170
     2
171
     1
172
     0
 90
        2
 40
0.0
 41
0.0
173
     1
 91
-1056964608
340
14
 92
       -2
290
     1
 42
2.0
291
     1
 43
8.0
  3
Standard
 44
4.0
300

342
11
174
     1
178
     1
175
     1
176
     0
 93
-1056964608
 45
4.0
292
     0
297
     0
 46
4.0
 94
-1056964608
 47
1.0
 49
1.0
140
1.0
293
     1
141
0.0
294
     1
177
     0
142
1.0
295
     0
296
     0
143
3.75
271
     0
272
     9
273
     9
298
     0
  0
MLINESTYLE
  5
18
102
{ACAD_REACTORS
330
17
102
}
330
17
100
AcDbMlineStyle
  2
STANDARD
 70
     0
  3

 62
   256
 51
90.0
 52
90.0
 71
     2
 49
0.5
 62
   256
  6
BYLAYER
 49
-0.5
 62
   256
  6
BYLAYER
  0
ACDBPLACEHOLDER
  5
F
102
{ACAD_REACTORS
330
E
102
}
330
E
  0
SCALE
  5
10D
102
{ACAD_REACTORS
330
10C
102
}
330
10C
100
AcDbScale
 70
     0
300
1:1
140
1.0
141
1.0
290
     1
  0
SCALE
  5
1BE
102
{ACAD_REACTORS
330
10C
102
}
330
10C
100
AcDbScale
 70
     0
300
1:2
140
1.0
141
2.0
290
     0
  0
SCALE
  5
1BF
102
{ACAD_REACTORS
330
10C
102
}
330
10C
100
AcDbScale
 70
     0
300
1:4
140
1.0
141
4.0
290
     0
  0
SCALE
  5
1C0
102
{ACAD_REACTORS
330
10C
102
}
330
10C
100
AcDbScale
 70
     0
300
1:5
140
1.0
141
5.0
290
     0
  0
SCALE
  5
1C1
102
{ACAD_REACTORS
330
10C
102
}
330
10C
100
AcDbScale
 70
     0
300
1:8
140
1.0
141
8.0
290
     0
  0
SCALE
  5
1C2
102
{ACAD_REACTORS
330
10C
102
}
330
10C
100
AcDbScale
 70
     0
300
1:10
140
1.0
141
10.0
290
     0
  0
SCALE
  5
1C3
102
{ACAD_REACTORS
330
10C
102
}
330
10C
100
AcDbScale
 70
     0
300
1:16
140
1.0
141
16.0
290
     0
  0
SCALE
  5
1C4
102
{ACAD_REACTORS
330
10C
102
}
330
10C
100
AcDbScale
 70
     0
300
1:20
140
1.0
141
20.0
290
     0
  0
SCALE
  5
1C5
102
{ACAD_REACTORS
330
10C
102
}
330
10C
100
AcDbScale
 70
     0
300
1:30
140
1.0
141
30.0
290
     0
  0
SCALE
  5
1C6
102
{ACAD_REACTORS
330
10C
102
}
330
10C
100
AcDbScale
 70
     0
300
1:40
140
1.0
141
40.0
290
     0
  0
SCALE
  5
1C7
102
{ACAD_REACTORS
330
10C
102
}
330
10C
100
AcDbScale
 70
     0
300
1:50
140
1.0
141
50.0
290
     0
  0
SCALE
  5
1C8
102
{ACAD_REACTORS
330
10C
102
}
330
10C
100
AcDbScale
 70
     0
300
1:100
140
1.0
141
100.0
290
     0
  0
SCALE
  5
1C9
102
{ACAD_REACTORS
330
10C
102
}
330
10C
100
AcDbScale
 70
     0
300
2:1
140
2.0
141
1.0
290
     0
  0
SCALE
  5
1CA
102
{ACAD_REACTORS
330
10C
102
}
330
10C
100
AcDbScale
 70
     0
300
4:1
140
4.0
141
1.0
290
     0
  0
SCALE
  5
1CB
102
{ACAD_REACTORS
330
10C
102
}
330
10C
100
AcDbScale
 70
     0
300
8:1
140
8.0
141
1.0
290
     0
  0
SCALE
  5
1CC
102
{ACAD_REACTORS
330
10C
102
}
330
10C
100
AcDbScale
 70
     0
300
10:1
140
10.0
141
1.0
290
     0
  0
SCALE
  5
1CD
102
{ACAD_REACTORS
330
10C
102
}
330
10C
100
AcDbScale
 70
     0
300
100:1
140
100.0
141
1.0
290
     0
  0
ACDBSECTIONVIEWSTYLE
  5
30326A4
102
{ACAD_REACTORS
330
219
102
}
330
219
100
AcDbModelDocViewStyle
 70
     0
  3
Imperial24
290
     0
300
Imperial24
 90
        0
100
AcDbSectionViewStyle
 70
     0
 71
     0
 90
       78
 71
     1
340
11
 62
   256
 40
0.24
340
0
340
0
 62
   256
 40
0.24
300
I, O, Q, S, X, Z
 40
0.48
 90
        3
 40
0.18
 90
        1
 71
     2
340
16
 90
       25
 62
   256
340
16
 90
       50
 62
   256
 40
0.24
 40
0.0
 40
0.24
 71
     3
340
11
 62
   256
 40
0.24
 90
        1
 40
0.75
 90
        1
300
%<\AcVar ViewType \f "%tc1">% %<\AcVar ViewSectionStartId>%-%<\AcVar ViewSectionEndId>%\PSCALE %<\AcVar ViewScale \f "%sn">%
 71
     4
 62
   256
 62
   257
300
ANSI31
 40
1.0
 90
        0
290
     0
290
     0
 90
        6
 40
0.0
 40
1.570796326794896
 40
0.2617993877991494
 40
1.308996938995747
 40
-0.2617993877991494
 40
1.832595714594046
  0
ACDBSECTIONVIEWSTYLE
  5
21A
102
{ACAD_REACTORS
330
219
102
}
330
219
100
AcDbModelDocViewStyle
 70
     0
  3
Metric50
290
     0
300
Metric50
 90
        0
100
AcDbSectionViewStyle
 70
     0
 71
     0
 90
      102
 71
     1
340
11
 62
   256
 40
5.0
340
0
340
0
 62
   256
 40
5.0
300
I, O, Q, S, X, Z
 40
10.0
 90
        0
 40
2.5
 90
        0
 71
     2
340
16
 90
       25
 62
   256
340
16
 90
       50
 62
   256
 40
5.0
 40
2.5
 40
5.0
 71
     3
340
11
 62
   256
 40
5.0
 90
        0
 40
15.0
 90
        1
300
%<\AcVar ViewSectionStartId>%-%<\AcVar ViewSectionEndId>% (%<\AcVar ViewScale \f "%sn">%)
 71
     4
 62
   256
 62
   257
300
ANSI31
 40
1.0
 90
        0
290
     0
290
     0
 90
        6
 40
0.0
 40
1.570796326794896
 40
0.2617993877991494
 40
1.308996938995747
 40
-0.2617993877991494
 40
1.832595714594046
  0
TABLESTYLE
  5
7F
102
{ACAD_XDICTIONARY
360
162
102
}
102
{ACAD_REACTORS
330
7E
102
}
330
7E
100
AcDbTableStyle
280
     0
  3
Standard
 70
     0
 71
     0
 40
1.5
 41
1.5
280
     0
281
     0
  7
Standard
140
4.5
170
     2
 62
     0
 63
     7
283
     0
 90
      512
 91
        0
  1

274
    -2
284
     1
 64
     0
275
    -2
285
     1
 65
     0
276
    -2
286
     1
 66
     0
277
    -2
287
     1
 67
     0
278
    -2
288
     1
 68
     0
279
    -2
289
     1
 69
     0
  7
Standard
140
6.0
170
     5
 62
     0
 63
     7
283
     0
 90
      512
 91
        0
  1

274
    -2
284
     1
 64
     0
275
    -2
285
     1
 65
     0
276
    -2
286
     1
 66
     0
277
    -2
287
     1
 67
     0
278
    -2
288
     1
 68
     0
279
    -2
289
     1
 69
     0
  7
Standard
140
4.5
170
     5
 62
     0
 63
     7
283
     0
 90
      512
 91
        0
  1

274
    -2
284
     1
 64
     0
275
    -2
285
     1
 65
     0
276
    -2
286
     1
 66
     0
277
    -2
287
     1
 67
     0
278
    -2
288
     1
 68
     0
279
    -2
289
     1
 69
     0
  0
VISUALSTYLE
  5
F5
102
{ACAD_REACTORS
330
EF
102
}
330
EF
100
AcDbVisualStyle
  2
2dWireframe
 70
     4
177
     3
291
     0
 70
    58
 90
        0
176
     1
 90
        2
176
     1
 90
        1
176
     1
 90
        0
176
     1
 40
0.6
176
     1
 40
30.0
176
     1
 62
     7
420
 16777215
176
     1
 90
        1
176
     1
 90
        4
176
     1
 62
     7
176
     1
 62
   257
176
     1
 90
        1
176
     1
 90
        1
176
     1
 40
1.0
176
     1
 90
        0
176
     1
 62
   257
176
     1
 40
1.0
176
     1
 90
        1
176
     1
 90
        6
176
     1
 90
        2
176
     1
 62
     7
176
     1
 90
        5
176
     1
 90
        0
176
     1
 90
        0
176
     1
290
     0
176
     1
 90
        1
176
     1
 40
0.0
176
     1
 90
        0
176
     1
290
     1
176
     1
290
     1
176
     1
290
     0
176
     1
290
     0
176
     1
290
     0
176
     1
290
     0
176
     1
290
     0
176
     1
290
     0
176
     1
290
     0
176
     1
 90
       50
176
     1
 40
0.0
176
     1
 40
1.0
176
     1
 90
        0
176
     1
 62
    18
420
        0
176
     1
 90
       50
176
     1
 90
        3
176
     1
 62
     5
420
      255
176
     1
290
     0
176
     1
 90
       50
176
     1
 90
       50
176
     1
 90
       50
176
     1
290
     0
176
     1
 90
       50
176
     1
 62
   256
176
     0
 40
1.0
176
     0
 90
        2
176
     1
  1
strokes_ogs.tif
176
     1
290
     0
176
     1
 40
1.0
176
     1
 40
1.0
176
     1
  0
VISUALSTYLE
  5
30326A3
102
{ACAD_REACTORS
330
EF
102
}
330
EF
100
AcDbVisualStyle
  2
3dWireframe
 70
     5
177
     3
291
     0
 70
    58
 90
        0
176
     1
 90
        2
176
     1
 90
        0
176
     1
 90
        0
176
     1
 40
0.6
176
     1
 40
30.0
176
     1
 62
     7
176
     1
 90
        1
176
     1
 90
        4
176
     1
 62
     7
176
     1
 62
   257
176
     1
 90
        1
176
     1
 90
        1
176
     1
 40
1.0
176
     1
 90
        0
176
     1
 62
   257
176
     1
 40
1.0
176
     1
 90
        1
176
     1
 90
        6
176
     1
 90
        2
176
     1
 62
     7
176
     1
 90
        5
176
     1
 90
        0
176
     1
 90
        0
176
     1
290
     0
176
     1
 90
        1
176
     1
 40
0.0
176
     1
 90
        0
176
     1
290
     0
176
     1
290
     1
176
     1
290
     1
176
     1
290
     0
176
     1
290
     0
176
     1
290
     0
176
     1
290
     0
176
     1
290
     0
176
     1
290
     0
176
     1
 90
       50
176
     1
 40
0.0
176
     1
 40
1.0
176
     1
 90
        0
176
     1
 62
    18
420
        0
176
     1
 90
       50
176
     1
 90
        3
176
     1
 62
     5
420
      255
176
     1
290
     0
176
     1
 90
       50
176
     1
 90
       50
176
     1
 90
       50
176
     1
290
     0
176
     1
 90
       50
176
     1
 62
   256
176
     0
 40
1.0
176
     0
 90
        2
176
     1
  1
strokes_ogs.tif
176
     1
290
     0
176
     1
 40
1.0
176
     1
 40
1.0
176
     1
  0
VISUALSTYLE
  5
F4
102
{ACAD_REACTORS
330
EF
102
}
330
EF
100
AcDbVisualStyle
  2
Basic
 70
     7
177
     3
291
     1
 70
    58
 90
        1
176
     1
 90
        0
176
     1
 90
        1
176
     1
 90
        0
176
     1
 40
0.6
176
     1
 40
30.0
176
     1
 62
     7
420
 16777215
176
     1
 90
        0
176
     1
 90
        4
176
     1
 62
     7
176
     1
 62
   257
176
     1
 90
        1
176
     1
 90
        1
176
     1
 40
1.0
176
     1
 90
        8
176
     1
 62
     7
176
     1
 40
1.0
176
     1
 90
        1
176
     1
 90
        6
176
     1
 90
        2
176
     1
 62
     7
176
     1
 90
        5
176
     1
 90
        0
176
     1
 90
        0
176
     1
290
     0
176
     1
 90
        1
176
     1
 40
0.0
176
     1
 90
        0
176
     1
290
     0
176
     1
290
     1
176
     1
290
     1
176
     1
290
     0
176
     1
290
     0
176
     1
290
     0
176
     1
290
     0
176
     1
290
     0
176
     1
290
     0
176
     1
 90
       50
176
     1
 40
0.0
176
     1
 40
1.0
176
     1
 90
        0
176
     1
 62
    18
420
        0
176
     1
 90
       50
176
     1
 90
        3
176
     1
 62
     5
420
      255
176
     1
290
     0
176
     1
 90
       50
176
     1
 90
       50
176
     1
 90
       50
176
     1
290
     0
176
     1
 90
       50
176
     1
 62
   256
176
     0
 40
1.0
176
     0
 90
        2
176
     1
  1
strokes_ogs.tif
176
     1
290
     0
176
     1
 40
1.0
176
     1
 40
1.0
176
     1
  0
VISUALSTYLE
  5
FB
102
{ACAD_REACTORS
330
EF
102
}
330
EF
100
AcDbVisualStyle
  2
Brighten
 70
    12
177
     3
291
     1
 70
    58
 90
        2
176
     1
 90
        2
176
     1
 90
        1
176
     1
 90
        0
176
     1
 40
0.6
176
     1
 40
30.0
176
     1
 62
     7
420
 16777215
176
     1
 90
        1
176
     1
 90
        4
176
     1
 62
     7
176
     1
 62
   257
176
     1
 90
        1
176
     1
 90
        1
176
     1
 40
1.0
176
     1
 90
        8
176
     1
 62
     7
176
     1
 40
1.0
176
     1
 90
        1
176
     1
 90
        6
176
     1
 90
        2
176
     1
 62
     7
176
     1
 90
        5
176
     1
 90
        0
176
     1
 90
        0
176
     1
290
     0
176
     1
 90
        1
176
     1
 40
50.0
176
     1
 90
        0
176
     1
290
     0
176
     1
290
     1
176
     1
290
     1
176
     1
290
     0
176
     1
290
     0
176
     1
290
     0
176
     1
290
     0
176
     1
290
     0
176
     1
290
     0
176
     1
 90
       50
176
     1
 40
0.0
176
     1
 40
1.0
176
     1
 90
        0
176
     1
 62
    18
420
        0
176
     1
 90
       50
176
     1
 90
        3
176
     1
 62
     5
420
      255
176
     1
290
     0
176
     1
 90
       50
176
     1
 90
       50
176
     1
 90
       50
176
     1
290
     0
176
     1
 90
       50
176
     1
 62
   256
176
     0
 40
1.0
176
     0
 90
        2
176
     1
  1
strokes_ogs.tif
176
     1
290
     0
176
     1
 40
1.0
176
     1
 40
1.0
176
     1
  0
VISUALSTYLE
  5
FF
102
{ACAD_REACTORS
330
EF
102
}
330
EF
100
AcDbVisualStyle
  2
ColorChange
 70
    16
177
     3
291
     1
 70
    58
 90
        2
176
     1
 90
        2
176
     1
 90
        3
176
     1
 90
        0
176
     1
 40
0.6
176
     1
 40
30.0
176
     1
 62
     8
420
  8421504
176
     1
 90
        1
176
     1
 90
        4
176
     1
 62
     7
176
     1
 62
   257
176
     1
 90
        1
176
     1
 90
        1
176
     1
 40
1.0
176
     1
 90
        8
176
     1
 62
     8
420
  8421504
176
     1
 40
1.0
176
     1
 90
        1
176
     1
 90
        6
176
     1
 90
        2
176
     1
 62
     7
176
     1
 90
        5
176
     1
 90
        0
176
     1
 90
        0
176
     1
290
     0
176
     1
 90
        1
176
     1
 40
0.0
176
     1
 90
        0
176
     1
290
     0
176
     1
290
     1
176
     1
290
     1
176
     1
290
     0
176
     1
290
     0
176
     1
290
     0
176
     1
290
     0
176
     1
290
     0
176
     1
290
     0
176
     1
 90
       50
176
     1
 40
0.0
176
     1
 40
1.0
176
     1
 90
        0
176
     1
 62
    18
420
        0
176
     1
 90
       50
176
     1
 90
        3
176
     1
 62
     5
420
      255
176
     1
290
     0
176
     1
 90
       50
176
     1
 90
       50
176
     1
 90
       50
176
     1
290
     0
176
     1
 90
       50
176
     1
 62
   256
176
     0
 40
1.0
176
     0
 90
        2
176
     1
  1
strokes_ogs.tif
176
     1
290
     0
176
     1
 40
1.0
176
     1
 40
1.0
176
     1
  0
VISUALSTYLE
  5
F8
102
{ACAD_REACTORS
330
EF
102
}
330
EF
100
AcDbVisualStyle
  2
Conceptual
 70
     9
177
     3
291
     0
 70
    58
 90
        3
176
     1
 90
        2
176
     1
 90
        1
176
     1
 90
        0
176
     1
 40
0.6
176
     1
 40
30.0
176
     1
 62
     7
420
 16777215
176
     1
 90
        2
176
     1
 90
        2
176
     1
 62
     7
176
     1
 62
   257
176
     1
 90
        1
176
     1
 90
        1
176
     1
 40
40.0
176
     1
 90
        8
176
     1
 62
     7
176
     1
 40
1.0
176
     1
 90
        1
176
     1
 90
        6
176
     1
 90
        2
176
     1
 62
     7
176
     1
 90
        3
176
     1
 90
        0
176
     1
 90
        0
176
     1
290
     0
176
     1
 90
        1
176
     1
 40
0.0
176
     1
 90
        0
176
     1
290
     0
176
     1
290
     1
176
     1
290
     1
176
     1
290
     0
176
     1
290
     0
176
     1
290
     0
176
     1
290
     0
176
     1
290
     0
176
     1
290
     0
176
     1
 90
       50
176
     1
 40
0.0
176
     1
 40
1.0
176
     1
 90
        0
176
     1
 62
    18
420
        0
176
     1
 90
       50
176
     1
 90
        3
176
     1
 62
     5
420
      255
176
     1
290
     0
176
     1
 90
       50
176
     1
 90
       50
176
     1
 90
       50
176
     1
290
     0
176
     1
 90
       50
176
     1
 62
   256
176
     0
 40
1.0
176
     0
 90
        2
176
     1
  1
strokes_ogs.tif
176
     1
290
     0
176
     1
 40
1.0
176
     1
 40
1.0
176
     1
  0
VISUALSTYLE
  5
FA
102
{ACAD_REACTORS
330
EF
102
}
330
EF
100
AcDbVisualStyle
  2
Dim
 70
    11
177
     3
291
     1
 70
    58
 90
        2
176
     1
 90
        2
176
     1
 90
        1
176
     1
 90
        0
176
     1
 40
0.6
176
     1
 40
30.0
176
     1
 62
     7
420
 16777215
176
     1
 90
        1
176
     1
 90
        4
176
     1
 62
     7
176
     1
 62
   257
176
     1
 90
        1
176
     1
 90
        1
176
     1
 40
1.0
176
     1
 90
        8
176
     1
 62
     7
176
     1
 40
1.0
176
     1
 90
        1
176
     1
 90
        6
176
     1
 90
        2
176
     1
 62
     7
176
     1
 90
        5
176
     1
 90
        0
176
     1
 90
        0
176
     1
290
     0
176
     1
 90
        1
176
     1
 40
-50.0
176
     1
 90
        0
176
     1
290
     0
176
     1
290
     1
176
     1
290
     1
176
     1
290
     0
176
     1
290
     0
176
     1
290
     0
176
     1
290
     0
176
     1
290
     0
176
     1
290
     0
176
     1
 90
       50
176
     1
 40
0.0
176
     1
 40
1.0
176
     1
 90
        0
176
     1
 62
    18
420
        0
176
     1
 90
       50
176
     1
 90
        3
176
     1
 62
     5
420
      255
176
     1
290
     0
176
     1
 90
       50
176
     1
 90
       50
176
     1
 90
       50
176
     1
290
     0
176
     1
 90
       50
176
     1
 62
   256
176
     0
 40
1.0
176
     0
 90
        2
176
     1
  1
strokes_ogs.tif
176
     1
290
     0
176
     1
 40
1.0
176
     1
 40
1.0
176
     1
  0
VISUALSTYLE
  5
1E6
102
{ACAD_REACTORS
330
EF
102
}
330
EF
100
AcDbVisualStyle
  2
EdgeColorOff
 70
    22
177
     3
291
     1
 70
    58
 90
        2
176
     0
 90
        2
176
     0
 90
        0
176
     0
 90
        0
176
     0
 40
0.6
176
     0
 40
30.0
176
     0
 62
     7
420
 16777215
176
     0
 90
        1
176
     0
 90
        4
176
     0
 62
     7
176
     0
 62
   257
176
     0
 90
        1
176
     0
 90
        1
176
     0
 40
1.0
176
     0
 90
        8
176
     2
 62
     7
176
     0
 40
1.0
176
     0
 90
        1
176
     0
 90
        6
176
     0
 90
        2
176
     0
 62
     7
176
     0
 90
        5
176
     0
 90
        0
176
     0
 90
        0
176
     0
290
     0
176
     0
 90
        1
176
     0
 40
0.0
176
     0
 90
        0
176
     0
290
     0
176
     1
290
     1
176
     1
290
     1
176
     1
290
     0
176
     1
290
     0
176
     1
290
     0
176
     1
290
     0
176
     1
290
     0
176
     1
290
     0
176
     1
 90
       50
176
     1
 40
0.0
176
     1
 40
1.0
176
     1
 90
        0
176
     1
 62
    18
420
        0
176
     1
 90
       50
176
     1
 90
        3
176
     1
 62
     5
420
      255
176
     1
290
     0
176
     1
 90
       50
176
     1
 90
       50
176
     1
 90
       50
176
     1
290
     0
176
     1
 90
       50
176
     1
 62
   256
176
     0
 40
1.0
176
     0
 90
        2
176
     1
  1
strokes_ogs.tif
176
     1
290
     0
176
     1
 40
1.0
176
     1
 40
1.0
176
     1
  0
VISUALSTYLE
  5
FE
102
{ACAD_REACTORS
330
EF
102
}
330
EF
100
AcDbVisualStyle
  2
Facepattern
 70
    15
177
     3
291
     1
 70
    58
 90
        2
176
     1
 90
        2
176
     1
 90
        1
176
     1
 90
        0
176
     1
 40
0.6
176
     1
 40
30.0
176
     1
 62
     7
420
 16777215
176
     1
 90
        1
176
     1
 90
        4
176
     1
 62
     7
176
     1
 62
   257
176
     1
 90
        1
176
     1
 90
        1
176
     1
 40
1.0
176
     1
 90
        8
176
     1
 62
     7
176
     1
 40
1.0
176
     1
 90
        1
176
     1
 90
        6
176
     1
 90
        2
176
     1
 62
     7
176
     1
 90
        5
176
     1
 90
        0
176
     1
 90
        0
176
     1
290
     0
176
     1
 90
        1
176
     1
 40
0.0
176
     1
 90
        0
176
     1
290
     0
176
     1
290
     1
176
     1
290
     1
176
     1
290
     0
176
     1
290
     0
176
     1
290
     0
176
     1
290
     0
176
     1
290
     0
176
     1
290
     0
176
     1
 90
       50
176
     1
 40
0.0
176
     1
 40
1.0
176
     1
 90
        0
176
     1
 62
    18
420
        0
176
     1
 90
       50
176
     1
 90
        3
176
     1
 62
     5
420
      255
176
     1
290
     0
176
     1
 90
       50
176
     1
 90
       50
176
     1
 90
       50
176
     1
290
     0
176
     1
 90
       50
176
     1
 62
   256
176
     0
 40
1.0
176
     0
 90
        2
176
     1
  1
strokes_ogs.tif
176
     1
290
     0
176
     1
 40
1.0
176
     1
 40
1.0
176
     1
  0
VISUALSTYLE
  5
F0
102
{ACAD_REACTORS
330
EF
102
}
330
EF
100
AcDbVisualStyle
  2
Flat
 70
     0
177
     3
291
     1
 70
    58
 90
        2
176
     1
 90
        1
176
     1
 90
        1
176
     1
 90
        2
176
     1
 40
0.6
176
     1
 40
30.0
176
     1
 62
     7
420
 16777215
176
     1
 90
        0
176
     1
 90
        0
176
     1
 62
     7
176
     1
 62
   257
176
     1
 90
        1
176
     1
 90
        1
176
     1
 40
1.0
176
     1
 90
        8
176
     1
 62
     7
176
     1
 40
1.0
176
     1
 90
        1
176
     1
 90
        6
176
     1
 90
        2
176
     1
 62
     7
176
     1
 90
        5
176
     1
 90
        0
176
     1
 90
        0
176
     1
290
     0
176
     1
 90
       13
176
     1
 40
0.0
176
     1
 90
        0
176
     1
290
     0
176
     1
290
     1
176
     1
290
     1
176
     1
290
     0
176
     1
290
     0
176
     1
290
     0
176
     1
290
     0
176
     1
290
     0
176
     1
290
     0
176
     1
 90
       50
176
     1
 40
0.0
176
     1
 40
1.0
176
     1
 90
        0
176
     1
 62
    18
420
        0
176
     1
 90
       50
176
     1
 90
        3
176
     1
 62
     5
420
      255
176
     1
290
     0
176
     1
 90
       50
176
     1
 90
       50
176
     1
 90
       50
176
     1
290
     0
176
     1
 90
       50
176
     1
 62
   256
176
     0
 40
1.0
176
     0
 90
        2
176
     1
  1
strokes_ogs.tif
176
     1
290
     0
176
     1
 40
1.0
176
     1
 40
1.0
176
     1
  0
VISUALSTYLE
  5
F1
102
{ACAD_REACTORS
330
EF
102
}
330
EF
100
AcDbVisualStyle
  2
FlatWithEdges
 70
     1
177
     3
291
     1
 70
    58
 90
        2
176
     1
 90
        1
176
     1
 90
        1
176
     1
 90
        2
176
     1
 40
0.6
176
     1
 40
30.0
176
     1
 62
     7
420
 16777215
176
     1
 90
        1
176
     1
 90
        0
176
     1
 62
     7
176
     1
 62
   257
176
     1
 90
        1
176
     1
 90
        1
176
     1
 40
1.0
176
     1
 90
        0
176
     1
 62
   257
176
     1
 40
1.0
176
     1
 90
        1
176
     1
 90
        6
176
     1
 90
        2
176
     1
 62
     7
176
     1
 90
        5
176
     1
 90
        0
176
     1
 90
        0
176
     1
290
     0
176
     1
 90
       13
176
     1
 40
0.0
176
     1
 90
        0
176
     1
290
     0
176
     1
290
     1
176
     1
290
     1
176
     1
290
     0
176
     1
290
     0
176
     1
290
     0
176
     1
290
     0
176
     1
290
     0
176
     1
290
     0
176
     1
 90
       50
176
     1
 40
0.0
176
     1
 40
1.0
176
     1
 90
        0
176
     1
 62
    18
420
        0
176
     1
 90
       50
176
     1
 90
        3
176
     1
 62
     5
420
      255
176
     1
290
     0
176
     1
 90
       50
176
     1
 90
       50
176
     1
 90
       50
176
     1
290
     0
176
     1
 90
       50
176
     1
 62
   256
176
     0
 40
1.0
176
     0
 90
        2
176
     1
  1
strokes_ogs.tif
176
     1
290
     0
176
     1
 40
1.0
176
     1
 40
1.0
176
     1
  0
VISUALSTYLE
  5
F2
102
{ACAD_REACTORS
330
EF
102
}
330
EF
100
AcDbVisualStyle
  2
Gouraud
 70
     2
177
     3
291
     1
 70
    58
 90
        2
176
     1
 90
        2
176
     1
 90
        1
176
     1
 90
        2
176
     1
 40
0.6
176
     1
 40
30.0
176
     1
 62
     7
420
 16777215
176
     1
 90
        0
176
     1
 90
        0
176
     1
 62
     7
176
     1
 62
   257
176
     1
 90
        1
176
     1
 90
        1
176
     1
 40
1.0
176
     1
 90
        0
176
     1
 62
     7
176
     1
 40
1.0
176
     1
 90
        1
176
     1
 90
        6
176
     1
 90
        2
176
     1
 62
     7
176
     1
 90
        5
176
     1
 90
        0
176
     1
 90
        0
176
     1
290
     0
176
     1
 90
       13
176
     1
 40
0.0
176
     1
 90
        0
176
     1
290
     0
176
     1
290
     1
176
     1
290
     1
176
     1
290
     0
176
     1
290
     0
176
     1
290
     0
176
     1
290
     0
176
     1
290
     0
176
     1
290
     0
176
     1
 90
       50
176
     1
 40
0.0
176
     1
 40
1.0
176
     1
 90
        0
176
     1
 62
    18
420
        0
176
     1
 90
       50
176
     1
 90
        3
176
     1
 62
     5
420
      255
176
     1
290
     0
176
     1
 90
       50
176
     1
 90
       50
176
     1
 90
       50
176
     1
290
     0
176
     1
 90
       50
176
     1
 62
   256
176
     0
 40
1.0
176
     0
 90
        2
176
     1
  1
strokes_ogs.tif
176
     1
290
     0
176
     1
 40
1.0
176
     1
 40
1.0
176
     1
  0
VISUALSTYLE
  5
F3
102
{ACAD_REACTORS
330
EF
102
}
330
EF
100
AcDbVisualStyle
  2
GouraudWithEdges
 70
     3
177
     3
291
     1
 70
    58
 90
        2
176
     1
 90
        2
176
     1
 90
        1
176
     1
 90
        2
176
     1
 40
0.6
176
     1
 40
30.0
176
     1
 62
     7
420
 16777215
176
     1
 90
        1
176
     1
 90
        0
176
     1
 62
     7
176
     1
 62
   257
176
     1
 90
        1
176
     1
 90
        1
176
     1
 40
1.0
176
     1
 90
        0
176
     1
 62
   257
176
     1
 40
1.0
176
     1
 90
        1
176
     1
 90
        6
176
     1
 90
        2
176
     1
 62
     7
176
     1
 90
        5
176
     1
 90
        0
176
     1
 90
        0
176
     1
290
     0
176
     1
 90
       13
176
     1
 40
0.0
176
     1
 90
        0
176
     1
290
     0
176
     1
290
     1
176
     1
290
     1
176
     1
290
     0
176
     1
290
     0
176
     1
290
     0
176
     1
290
     0
176
     1
290
     0
176
     1
290
     0
176
     1
 90
       50
176
     1
 40
0.0
176
     1
 40
1.0
176
     1
 90
        0
176
     1
 62
    18
420
        0
176
     1
 90
       50
176
     1
 90
        3
176
     1
 62
     5
420
      255
176
     1
290
     0
176
     1
 90
       50
176
     1
 90
       50
176
     1
 90
       50
176
     1
290
     0
176
     1
 90
       50
176
     1
 62
   256
176
     0
 40
1.0
176
     0
 90
        2
176
     1
  1
strokes_ogs.tif
176
     1
290
     0
176
     1
 40
1.0
176
     1
 40
1.0
176
     1
  0
VISUALSTYLE
  5
F7
102
{ACAD_REACTORS
330
EF
102
}
330
EF
100
AcDbVisualStyle
  2
Hidden
 70
     6
177
     3
291
     0
 70
    58
 90
        1
176
     1
 90
        2
176
     1
 90
        2
176
     1
 90
        0
176
     1
 40
0.6
176
     1
 40
30.0
176
     1
 62
     7
420
 16777215
176
     1
 90
        2
176
     1
 90
        2
176
     1
 62
     7
176
     1
 62
   257
176
     1
 90
        2
176
     1
 90
        1
176
     1
 40
40.0
176
     1
 90
        0
176
     1
 62
   257
176
     1
 40
1.0
176
     1
 90
        1
176
     1
 90
        6
176
     1
 90
        2
176
     1
 62
     7
176
     1
 90
        3
176
     1
 90
        0
176
     1
 90
        0
176
     1
290
     0
176
     1
 90
        1
176
     1
 40
0.0
176
     1
 90
        0
176
     1
290
     0
176
     1
290
     1
176
     1
290
     1
176
     1
290
     0
176
     1
290
     0
176
     1
290
     0
176
     1
290
     0
176
     1
290
     0
176
     1
290
     0
176
     1
 90
       50
176
     1
 40
0.0
176
     1
 40
1.0
176
     1
 90
        0
176
     1
 62
    18
420
        0
176
     1
 90
       50
176
     1
 90
        3
176
     1
 62
     5
420
      255
176
     1
290
     0
176
     1
 90
       50
176
     1
 90
       50
176
     1
 90
       50
176
     1
290
     0
176
     1
 90
       50
176
     1
 62
   256
176
     0
 40
1.0
176
     0
 90
        2
176
     1
  1
strokes_ogs.tif
176
     1
290
     0
176
     1
 40
1.0
176
     1
 40
1.0
176
     1
  0
VISUALSTYLE
  5
1E4
102
{ACAD_REACTORS
330
EF
102
}
330
EF
100
AcDbVisualStyle
  2
JitterOff
 70
    20
177
     3
291
     1
 70
    58
 90
        2
176
     0
 90
        2
176
     0
 90
        0
176
     0
 90
        0
176
     0
 40
0.6
176
     0
 40
30.0
176
     0
 62
     7
420
 16777215
176
     0
 90
        1
176
     0
 90
        4
176
     0
 62
     7
176
     0
 62
   257
176
     0
 90
        1
176
     0
 90
        1
176
     0
 40
1.0
176
     0
 90
       10
176
     2
 62
     7
176
     0
 40
1.0
176
     0
 90
        1
176
     0
 90
        6
176
     0
 90
        2
176
     0
 62
     7
176
     0
 90
        5
176
     0
 90
        0
176
     0
 90
        0
176
     0
290
     0
176
     0
 90
        1
176
     0
 40
0.0
176
     0
 90
        0
176
     0
290
     0
176
     1
290
     1
176
     1
290
     1
176
     1
290
     0
176
     1
290
     0
176
     1
290
     0
176
     1
290
     0
176
     1
290
     0
176
     1
290
     0
176
     1
 90
       50
176
     1
 40
0.0
176
     1
 40
1.0
176
     1
 90
        0
176
     1
 62
    18
420
        0
176
     1
 90
       50
176
     1
 90
        3
176
     1
 62
     5
420
      255
176
     1
290
     0
176
     1
 90
       50
176
     1
 90
       50
176
     1
 90
       50
176
     1
290
     0
176
     1
 90
       50
176
     1
 62
   256
176
     0
 40
1.0
176
     0
 90
        2
176
     1
  1
strokes_ogs.tif
176
     1
290
     0
176
     1
 40
1.0
176
     1
 40
1.0
176
     1
  0
VISUALSTYLE
  5
FD
102
{ACAD_REACTORS
330
EF
102
}
330
EF
100
AcDbVisualStyle
  2
Linepattern
 70
    14
177
     3
291
     1
 70
    58
 90
        2
176
     1
 90
        2
176
     1
 90
        1
176
     1
 90
        0
176
     1
 40
0.6
176
     1
 40
30.0
176
     1
 62
     7
420
 16777215
176
     1
 90
        1
176
     1
 90
        4
176
     1
 62
     7
176
     1
 62
   257
176
     1
 90
        7
176
     1
 90
        7
176
     1
 40
1.0
176
     1
 90
        8
176
     1
 62
     7
176
     1
 40
1.0
176
     1
 90
        1
176
     1
 90
        6
176
     1
 90
        2
176
     1
 62
     7
176
     1
 90
        5
176
     1
 90
        0
176
     1
 90
        0
176
     1
290
     0
176
     1
 90
        1
176
     1
 40
0.0
176
     1
 90
        0
176
     1
290
     0
176
     1
290
     1
176
     1
290
     1
176
     1
290
     0
176
     1
290
     0
176
     1
290
     0
176
     1
290
     0
176
     1
290
     0
176
     1
290
     0
176
     1
 90
       50
176
     1
 40
0.0
176
     1
 40
1.0
176
     1
 90
        0
176
     1
 62
    18
420
        0
176
     1
 90
       50
176
     1
 90
        3
176
     1
 62
     5
420
      255
176
     1
290
     0
176
     1
 90
       50
176
     1
 90
       50
176
     1
 90
       50
176
     1
290
     0
176
     1
 90
       50
176
     1
 62
   256
176
     0
 40
1.0
176
     0
 90
        2
176
     1
  1
strokes_ogs.tif
176
     1
290
     0
176
     1
 40
1.0
176
     1
 40
1.0
176
     1
  0
VISUALSTYLE
  5
1E5
102
{ACAD_REACTORS
330
EF
102
}
330
EF
100
AcDbVisualStyle
  2
OverhangOff
 70
    21
177
     3
291
     1
 70
    58
 90
        2
176
     0
 90
        2
176
     0
 90
        0
176
     0
 90
        0
176
     0
 40
0.6
176
     0
 40
30.0
176
     0
 62
     7
420
 16777215
176
     0
 90
        1
176
     0
 90
        4
176
     0
 62
     7
176
     0
 62
   257
176
     0
 90
        1
176
     0
 90
        1
176
     0
 40
1.0
176
     0
 90
        9
176
     2
 62
     7
176
     0
 40
1.0
176
     0
 90
        1
176
     0
 90
        6
176
     0
 90
        2
176
     0
 62
     7
176
     0
 90
        5
176
     0
 90
        0
176
     0
 90
        0
176
     0
290
     0
176
     0
 90
        1
176
     0
 40
0.0
176
     0
 90
        0
176
     0
290
     0
176
     1
290
     1
176
     1
290
     1
176
     1
290
     0
176
     1
290
     0
176
     1
290
     0
176
     1
290
     0
176
     1
290
     0
176
     1
290
     0
176
     1
 90
       50
176
     1
 40
0.0
176
     1
 40
1.0
176
     1
 90
        0
176
     1
 62
    18
420
        0
176
     1
 90
       50
176
     1
 90
        3
176
     1
 62
     5
420
      255
176
     1
290
     0
176
     1
 90
       50
176
     1
 90
       50
176
     1
 90
       50
176
     1
290
     0
176
     1
 90
       50
176
     1
 62
   256
176
     0
 40
1.0
176
     0
 90
        2
176
     1
  1
strokes_ogs.tif
176
     1
290
     0
176
     1
 40
1.0
176
     1
 40
1.0
176
     1
  0
VISUALSTYLE
  5
F9
102
{ACAD_REACTORS
330
EF
102
}
330
EF
100
AcDbVisualStyle
  2
Realistic
 70
     8
177
     3
291
     0
 70
    58
 90
        2
176
     1
 90
        2
176
     1
 90
        0
176
     1
 90
        2
176
     1
 40
0.6
176
     1
 40
30.0
176
     1
 62
     7
420
 16777215
176
     1
 90
        0
176
     1
 90
        0
176
     1
 62
     7
176
     1
 62
   257
176
     1
 90
        1
176
     1
 90
        1
176
     1
 40
1.0
176
     1
 90
        8
176
     1
 62
   257
176
     1
 40
1.0
176
     1
 90
        1
176
     1
 90
        6
176
     1
 90
        2
176
     1
 62
     7
176
     1
 90
        3
176
     1
 90
        0
176
     1
 90
        0
176
     1
290
     0
176
     1
 90
       13
176
     1
 40
0.0
176
     1
 90
        0
176
     1
290
     0
176
     1
290
     1
176
     1
290
     1
176
     1
290
     0
176
     1
290
     0
176
     1
290
     0
176
     1
290
     0
176
     1
290
     0
176
     1
290
     0
176
     1
 90
       50
176
     1
 40
0.0
176
     1
 40
1.0
176
     1
 90
        0
176
     1
 62
    18
420
        0
176
     1
 90
       50
176
     1
 90
        3
176
     1
 62
     5
420
      255
176
     1
290
     0
176
     1
 90
       50
176
     1
 90
       50
176
     1
 90
       50
176
     1
290
     0
176
     1
 90
       50
176
     1
 62
   256
176
     0
 40
1.0
176
     0
 90
        2
176
     1
  1
strokes_ogs.tif
176
     1
290
     0
176
     1
 40
1.0
176
     1
 40
1.0
176
     1
  0
VISUALSTYLE
  5
1F3
102
{ACAD_REACTORS
330
EF
102
}
330
EF
100
AcDbVisualStyle
  2
Shaded
 70
    27
177
     3
291
     0
 70
    58
 90
        2
176
     1
 90
        2
176
     1
 90
        1
176
     1
 90
        2
176
     1
 40
0.6
176
     1
 40
30.0
176
     1
 62
     7
420
 16777215
176
     1
 90
        0
176
     1
 90
        4
176
     1
 62
     7
176
     1
 62
   257
176
     1
 90
        1
176
     1
 90
        1
176
     1
 40
1.0
176
     1
 90
        8
176
     1
 62
   257
176
     1
 40
1.0
176
     1
 90
        1
176
     1
 90
        6
176
     1
 90
        2
176
     1
 62
     8
420
  7895160
176
     1
 90
        3
176
     1
 90
        0
176
     1
 90
        0
176
     1
290
     0
176
     1
 90
        5
176
     1
 40
0.0
176
     1
 90
        0
176
     1
290
     0
176
     1
290
     1
176
     1
290
     1
176
     1
290
     0
176
     1
290
     0
176
     1
290
     0
176
     1
290
     0
176
     1
290
     0
176
     1
290
     0
176
     1
 90
       50
176
     1
 40
0.0
176
     1
 40
1.0
176
     1
 90
        0
176
     1
 62
    18
420
        0
176
     1
 90
       50
176
     1
 90
        3
176
     1
 62
     5
420
      255
176
     1
290
     0
176
     1
 90
       50
176
     1
 90
       50
176
     1
 90
       50
176
     1
290
     0
176
     1
 90
       50
176
     1
 62
   256
176
     0
 40
1.0
176
     0
 90
        2
176
     1
  1
strokes_ogs.tif
176
     1
290
     0
176
     1
 40
1.0
176
     1
 40
1.0
176
     1
  0
VISUALSTYLE
  5
1F2
102
{ACAD_REACTORS
330
EF
102
}
330
EF
100
AcDbVisualStyle
  2
Shaded with edges
 70
    26
177
     3
291
     0
 70
    58
 90
        2
176
     1
 90
        2
176
     1
 90
        1
176
     1
 90
        2
176
     1
 40
0.6
176
     1
 40
30.0
176
     1
 62
     7
420
 16777215
176
     1
 90
        1
176
     1
 90
        2
176
     1
 62
     7
176
     1
 62
   257
176
     1
 90
        2
176
     1
 90
        1
176
     1
 40
1.0
176
     1
 90
        8
176
     1
 62
   257
176
     1
 40
1.0
176
     1
 90
        1
176
     1
 90
        6
176
     1
 90
        2
176
     1
 62
     7
176
     1
 90
        3
176
     1
 90
        0
176
     1
 90
        0
176
     1
290
     0
176
     1
 90
        5
176
     1
 40
0.0
176
     1
 90
        0
176
     1
290
     0
176
     1
290
     1
176
     1
290
     1
176
     1
290
     0
176
     1
290
     0
176
     1
290
     0
176
     1
290
     0
176
     1
290
     0
176
     1
290
     0
176
     1
 90
       50
176
     1
 40
0.0
176
     1
 40
1.0
176
     1
 90
        0
176
     1
 62
    18
420
        0
176
     1
 90
       50
176
     1
 90
        3
176
     1
 62
     5
420
      255
176
     1
290
     0
176
     1
 90
       50
176
     1
 90
       50
176
     1
 90
       50
176
     1
290
     0
176
     1
 90
       50
176
     1
 62
   256
176
     0
 40
1.0
176
     0
 90
        2
176
     1
  1
strokes_ogs.tif
176
     1
290
     0
176
     1
 40
1.0
176
     1
 40
1.0
176
     1
  0
VISUALSTYLE
  5
1EF
102
{ACAD_REACTORS
330
EF
102
}
330
EF
100
AcDbVisualStyle
  2
Shades of Gray
 70
    23
177
     3
291
     0
 70
    58
 90
        2
176
     1
 90
        2
176
     1
 90
        3
176
     1
 90
        0
176
     1
 40
0.6
176
     1
 40
30.0
176
     1
 62
     7
420
 16777215
176
     1
 90
        2
176
     1
 90
        2
176
     1
 62
     7
176
     1
 62
     7
176
     1
 90
        1
176
     1
 90
        1
176
     1
 40
40.0
176
     1
 90
        8
176
     1
 62
     7
176
     1
 40
1.0
176
     1
 90
        1
176
     1
 90
        6
176
     1
 90
        2
176
     1
 62
     7
176
     1
 90
        3
176
     1
 90
        0
176
     1
 90
        0
176
     1
290
     0
176
     1
 90
        1
176
     1
 40
0.0
176
     1
 90
        0
176
     1
290
     0
176
     1
290
     1
176
     1
290
     1
176
     1
290
     0
176
     1
290
     0
176
     1
290
     0
176
     1
290
     0
176
     1
290
     0
176
     1
290
     0
176
     1
 90
       50
176
     1
 40
0.0
176
     1
 40
1.0
176
     1
 90
        0
176
     1
 62
    18
420
        0
176
     1
 90
       50
176
     1
 90
        3
176
     1
 62
     5
420
      255
176
     1
290
     0
176
     1
 90
       50
176
     1
 90
       50
176
     1
 90
       50
176
     1
290
     0
176
     1
 90
       50
176
     1
 62
   256
176
     0
 40
1.0
176
     0
 90
        2
176
     1
  1
strokes_ogs.tif
176
     1
290
     0
176
     1
 40
1.0
176
     1
 40
1.0
176
     1
  0
VISUALSTYLE
  5
1F0
102
{ACAD_REACTORS
330
EF
102
}
330
EF
100
AcDbVisualStyle
  2
Sketchy
 70
    24
177
     3
291
     0
 70
    58
 90
        1
176
     1
 90
        2
176
     1
 90
        2
176
     1
 90
        0
176
     1
 40
0.6
176
     1
 40
30.0
176
     1
 62
     7
420
 16777215
176
     1
 90
        2
176
     1
 90
        2
176
     1
 62
     7
176
     1
 62
     7
176
     1
 90
        1
176
     1
 90
        1
176
     1
 40
40.0
176
     1
 90
       11
176
     1
 62
     7
176
     1
 40
1.0
176
     1
 90
        1
176
     1
 90
        6
176
     1
 90
        2
176
     1
 62
     7
176
     1
 90
        6
176
     1
 90
        0
176
     1
 90
        0
176
     1
290
     0
176
     1
 90
        1
176
     1
 40
0.0
176
     1
 90
        0
176
     1
290
     0
176
     1
290
     1
176
     1
290
     1
176
     1
290
     0
176
     1
290
     0
176
     1
290
     0
176
     1
290
     0
176
     1
290
     0
176
     1
290
     0
176
     1
 90
       50
176
     1
 40
0.0
176
     1
 40
1.0
176
     1
 90
        0
176
     1
 62
    18
420
        0
176
     1
 90
       50
176
     1
 90
        3
176
     1
 62
     5
420
      255
176
     1
290
     0
176
     1
 90
       50
176
     1
 90
       50
176
     1
 90
       50
176
     1
290
     0
176
     1
 90
       50
176
     1
 62
   256
176
     0
 40
1.0
176
     0
 90
        2
176
     1
  1
strokes_ogs.tif
176
     1
290
     0
176
     1
 40
1.0
176
     1
 40
1.0
176
     1
  0
VISUALSTYLE
  5
FC
102
{ACAD_REACTORS
330
EF
102
}
330
EF
100
AcDbVisualStyle
  2
Thicken
 70
    13
177
     3
291
     1
 70
    58
 90
        2
176
     1
 90
        2
176
     1
 90
        1
176
     1
 90
        0
176
     1
 40
0.6
176
     1
 40
30.0
176
     1
 62
     7
420
 16777215
176
     1
 90
        1
176
     1
 90
        4
176
     1
 62
     7
176
     1
 62
   257
176
     1
 90
        1
176
     1
 90
        1
176
     1
 40
1.0
176
     1
 90
       12
176
     1
 62
     7
176
     1
 40
1.0
176
     1
 90
        1
176
     1
 90
        6
176
     1
 90
        2
176
     1
 62
     7
176
     1
 90
        5
176
     1
 90
        0
176
     1
 90
        0
176
     1
290
     0
176
     1
 90
        1
176
     1
 40
0.0
176
     1
 90
        0
176
     1
290
     0
176
     1
290
     1
176
     1
290
     1
176
     1
290
     0
176
     1
290
     0
176
     1
290
     0
176
     1
290
     0
176
     1
290
     0
176
     1
290
     0
176
     1
 90
       50
176
     1
 40
0.0
176
     1
 40
1.0
176
     1
 90
        0
176
     1
 62
    18
420
        0
176
     1
 90
       50
176
     1
 90
        3
176
     1
 62
     5
420
      255
176
     1
290
     0
176
     1
 90
       50
176
     1
 90
       50
176
     1
 90
       50
176
     1
290
     0
176
     1
 90
       50
176
     1
 62
   256
176
     0
 40
1.0
176
     0
 90
        2
176
     1
  1
strokes_ogs.tif
176
     1
290
     0
176
     1
 40
1.0
176
     1
 40
1.0
176
     1
  0
VISUALSTYLE
  5
F6
102
{ACAD_REACTORS
330
EF
102
}
330
EF
100
AcDbVisualStyle
  2
Wireframe
 70
     5
177
     3
291
     0
 70
    58
 90
        0
176
     1
 90
        2
176
     1
 90
        0
176
     1
 90
        0
176
     1
 40
0.6
176
     1
 40
30.0
176
     1
 62
     7
420
 16777215
176
     1
 90
        1
176
     1
 90
        4
176
     1
 62
     7
176
     1
 62
   257
176
     1
 90
        1
176
     1
 90
        1
176
     1
 40
1.0
176
     1
 90
        0
176
     1
 62
   257
176
     1
 40
1.0
176
     1
 90
        1
176
     1
 90
        6
176
     1
 90
        2
176
     1
 62
     7
176
     1
 90
        3
176
     1
 90
        0
176
     1
 90
        0
176
     1
290
     0
176
     1
 90
        1
176
     1
 40
0.0
176
     1
 90
        0
176
     1
290
     0
176
     1
290
     1
176
     1
290
     1
176
     1
290
     0
176
     1
290
     0
176
     1
290
     0
176
     1
290
     0
176
     1
290
     0
176
     1
290
     0
176
     1
 90
       50
176
     1
 40
0.0
176
     1
 40
1.0
176
     1
 90
        0
176
     1
 62
    18
420
        0
176
     1
 90
       50
176
     1
 90
        3
176
     1
 62
     5
420
      255
176
     1
290
     0
176
     1
 90
       50
176
     1
 90
       50
176
     1
 90
       50
176
     1
290
     0
176
     1
 90
       50
176
     1
 62
   256
176
     0
 40
1.0
176
     0
 90
        2
176
     1
  1
strokes_ogs.tif
176
     1
290
     0
176
     1
 40
1.0
176
     1
 40
1.0
176
     1
  0
VISUALSTYLE
  5
1F1
102
{ACAD_REACTORS
330
EF
102
}
330
EF
100
AcDbVisualStyle
  2
X-Ray
 70
    25
177
     3
291
     0
 70
    58
 90
        2
176
     1
 90
        2
176
     1
 90
        1
176
     1
 90
        1
176
     1
 40
0.5
176
     1
 40
30.0
176
     1
 62
     7
420
 16777215
176
     1
 90
        1
176
     1
 90
        0
176
     1
 62
     7
176
     1
 62
   257
176
     1
 90
        1
176
     1
 90
        1
176
     1
 40
1.0
176
     1
 90
        8
176
     1
 62
     7
176
     1
 40
1.0
176
     1
 90
        1
176
     1
 90
        6
176
     1
 90
        2
176
     1
 62
     7
176
     1
 90
        3
176
     1
 90
        0
176
     1
 90
        0
176
     1
290
     0
176
     1
 90
       13
176
     1
 40
0.0
176
     1
 90
        0
176
     1
290
     0
176
     1
290
     1
176
     1
290
     1
176
     1
290
     0
176
     1
290
     0
176
     1
290
     0
176
     1
290
     0
176
     1
290
     0
176
     1
290
     0
176
     1
 90
       50
176
     1
 40
0.0
176
     1
 40
1.0
176
     1
 90
        0
176
     1
 62
    18
420
        0
176
     1
 90
       50
176
     1
 90
        3
176
     1
 62
     5
420
      255
176
     1
290
     0
176
     1
 90
       50
176
     1
 90
       50
176
     1
 90
       50
176
     1
290
     0
176
     1
 90
       50
176
     1
 62
   256
176
     0
 40
1.0
176
     0
 90
        2
176
     1
  1
strokes_ogs.tif
176
     1
290
     0
176
     1
 40
1.0
176
     1
 40
1.0
176
     1
  0
DICTIONARYVAR
  5
146
102
{ACAD_REACTORS
330
5E
102
}
330
5E
100
DictionaryVariables
280
     0
  1
1:1
  0
DICTIONARYVAR
  5
259
102
{ACAD_REACTORS
330
5E
102
}
330
5E
100
DictionaryVariables
280
     0
  1
3.500000
  0
DICTIONARYVAR
  5
25A
102
{ACAD_REACTORS
330
5E
102
}
330
5E
100
DictionaryVariables
280
     0
  1
acadiso.lin
  0
DICTIONARYVAR
  5
145
102
{ACAD_REACTORS
330
5E
102
}
330
5E
100
DictionaryVariables
280
     0
  1
STANDARD
  0
DICTIONARYVAR
  5
84
102
{ACAD_REACTORS
330
5E
102
}
330
5E
100
DictionaryVariables
280
     0
  1
STANDARD
  0
DICTIONARYVAR
  5
227
102
{ACAD_REACTORS
330
5E
102
}
330
5E
100
DictionaryVariables
280
     0
  1
Metric50
  0
DICTIONARYVAR
  5
228
102
{ACAD_REACTORS
330
5E
102
}
330
5E
100
DictionaryVariables
280
     0
  1
Metric50
  0
DICTIONARYVAR
  5
5F
102
{ACAD_REACTORS
330
5E
102
}
330
5E
100
DictionaryVariables
280
     0
  1
2
  0
DICTIONARYVAR
  5
63
102
{ACAD_REACTORS
330
5E
102
}
330
5E
100
DictionaryVariables
280
     0
  1
1
  0
DICTIONARYVAR
  5
27E
102
{ACAD_REACTORS
330
5E
102
}
330
5E
100
DictionaryVariables
280
     0
  1
RGB:0,0,0
  0
DICTIONARYVAR
  5
281
102
{ACAD_REACTORS
330
5E
102
}
330
5E
100
DictionaryVariables
280
     0
  1
ByLayer
  0
DICTIONARYVAR
  5
1AE
102
{ACAD_REACTORS
330
5E
102
}
330
5E
100
DictionaryVariables
280
     0
  1
0
  0
DICTIONARYVAR
  5
1AF
102
{ACAD_REACTORS
330
5E
102
}
330
5E
100
DictionaryVariables
280
     0
  1
0
  0
DICTIONARY
  5
205
330
22
100
AcDbDictionary
280
     1
281
     1
  0
DICTIONARY
  5
1F9
330
ED
100
AcDbDictionary
280
     1
281
     1
  3
FBXASSET
360
1FA
  0
DICTIONARY
  5
1F7
330
EC
100
AcDbDictionary
280
     1
281
     1
  3
FBXASSET
360
1F8
  0
DICTIONARY
  5
173
330
EE
100
AcDbDictionary
280
     1
281
     1
  3
BUMPTILE
360
175
  3
DIFFUSETILE
360
174
  3
FBXASSET
360
1FB
  3
OPACITYTILE
360
176
  3
REFLECTIONTILE
360
177
  0
DICTIONARY
  5
162
330
7F
100
AcDbDictionary
280
     1
281
     1
  3
ACAD_ROUNDTRIP_2008_TABLESTYLE_CELLSTYLEMAP
360
303292C
  0
XRECORD
  5
1FA
102
{ACAD_REACTORS
330
1F9
102
}
330
1F9
100
AcDbXrecord
280
     1
 70
     1
 90
429727718
  1
D62C5603-E3A1-4AEA-B7FB-FE5D8D0755AF
310
504B03040A0000080000CC70623B3DEE336E79000000790000001B0000006175746F6465736B2D64657369676E2D7061636B6167652E786D6C3C3F786D6C2076657273696F6E3D22312E302220656E636F64696E673D227574662D3822203F3E3C666F726D6174733E3C666F726D61743E687474703A2F2F736368656D612E
310
6175746F6465736B2E636F6D2F64657369676E2D7061636B6167652F323030393C2F666F726D61743E3C2F666F726D6174733E504B0304140006080800CC70623BD486FD9CA0000000F4000000130000005B436F6E74656E745F54797065735D2E786D6C7D8EC10E82300C865F65E91D8A1E8C310C0EEA1BF002731658846E
310
D98AC1B77784ABF1D8FE5FBFBF75BBCE937A534CCEB38643598122B6FEE978D0B0485F9C41B54DDD7D022595594E1A469170414C76A4D9A4D207E29CF43ECE46F218070CC6BECC4078ACAA135ACF422C856C0E68EA1BF5669944DDD7BCDE7B1F8E415D77AECB980613C2E4AC91FC167A2B244592486606FC29C8FD7F045B9A
310
EF7053A7E60B504B0304140006080800CC70623B853B8169EB0000007C01000008000000636F72652E786D6C8D90416EC3201045AF62CDB6C206821CC7C244919D9CA01740401C94182C03558F5F9C3852BBEB6A467FFE9B197D7EFC9E1EC5975982F5AE035262288C535E5B377690E21535501C055FBC8FBF6C503839990E
310
5619041F179FE64D52DE45E362569DD7661365082642A11EB9E920A89B99642953CC8E702F67A9EE7234257977194EC9EAE275C4EABCCF5EAD5940D4AC6F0E35A568B8F43562CD7046CD199FD07E60174276A7BE677B5EADB0E0D14EEFFB6A31321A0D82627C4084204C3F096B71DD52F6819B16635EADF63F509AF53FA164
310
5DDCD1EDDD17164090FCC8732078B56691CB33A85CD7DCC40F504B0304140006080800CC70623B55019EA25F0000007C00000007000000636E782E786D6C4DCB3B0E80201045D1AD90E915ED2CF8AC45050C11660C8261F98AB1B07AC9C97D42D718D865D3E909258CFD00CCE24AC6E326A164D74DC0B4128928FF32603847
310
2BA13128B1252AC747C6BAB984FC68F0B87FE8960A5C09FE86CFB69FBA01504B0304140006080800CC70623BDBABAAF470010000D40300000C0000006662782F636F72652E786D6CC553D16E823014FD95A6AF4B694182CC941A83FA05FB810A9511A125A5257EFE2E82712ECEB8A7F100CD39F7F69E734AF9FADC366850B6
310
AF8DCE7018308C942E4C59EB2AC3DE1D498AD15A706B8CFB56869196ADCAF00863C12B6B7C374385D14E6907A836A59A41D9F7CA615434B0C8705F7CAA5606D23BA8E84F41278B93AC54100640439DE0BDB320004D43C63716C7C399D30917DCFBBA9CD9BA8469F5B156168B24CED3F7248AC8769F27244EB73B92EED8862C
310
B7F13E0C179B3C8F979C8ECD82BBBABDAA2BAC924E9558448CBD9330242CFA08E3154B5651FCC6D215639C8EE5774DBE2B5F6CF2B5768B68963BB5F5588420E442FC700B1139D4CB01F450C1E918227C2E09DF070D8140C84E1E9AAB8F1340832A9CB13130A5F1376A908D57309505ECF2A0DF179C4E9D30F5B239B87E3823
310
7A79C6F31DE1A8A5AEC08474B03C7837EAE4938639B44E5932B833D2C6B6B279CDC613877FA26EE21F4A2A4C63EC7F29A2F301D1F9F7A0E37D145F504B0304140006080800CC70623B9C113CC27E0000009D0000000B0000006662782F636E782E786D6C4DCCDF0A83201C86E15B91DFB94BFB330DD428C8FB886521330DA7
310
6397BF1A1DECE883878F57749FCDA1B7892F1BBC047A23808C7F84D9FA55424E0BE6803A256208E9EF06C84F9B91703228B1C690F78B66B34CD9A5439DF5CF0BFBF65E35BCA1B8D6A5C6F540381E886698B5741C695F9503EBA150A2F8958E3DC3EA0B504B0304140006080800CC70623B7DF2F77C2A010000120200003100
310
00006662782F41393633353835312D344632462D344230382D423046372D3739314545314133324237412F636F72652E786D6C8D51DB8EC22014FC15C2939B0D2DB4B45643319AE817EC0F6041255A68B86CFCFC856D4D76DF7CE190393373060EDB3DC707F856CE6B6B7A480A0C81328395DA5C7B18C3057510EC3873D686
310
3F34088C18550F330C39BB3A1BA7051AAC09CA84841A2BD5020AEF55806078A44B0FFD7053A328440C89E1EFC52486BBB8AA8214A99D789CF9E05200300FC927E4FB4D5B375D43103D5527440FB843077C5AA3F5861C8F645F5787F59E95B390B318B55CE45AA638FAA2957BD7248B390B7A7CC51F9C124149C82B8C378810
310
84AB2F42B7B8DD56F413775B8C5999E9FF4471926F8AA236A1AE96B8B3CC434E5839373893369E1FAF30EA395917409EB7F26AF8801C171837A4A6AC9C89E9F9C9B1A58BA30FD6A5EF5DDDCF894B9AD9B6A59C957943A9FCAE2FD5BC4DFE03504B0304140006080800CC70623BAD7543B64E01000033030000300000006662
310
782F41393633353835312D344632462D344230382D423046372D3739314545314133324237412F636E782E786D6CD593CD6EC32010845F0571AD6CE3D48AD20813A9873E410FBD12D82434182C7EAAE6EDBB2424CD25871E7B41D6EC30B3FA84F9E67BB2E40B4234DE8DB46F1925E094D7C6ED479AD3AE5951B2113C789FEE
310
6C943839C1488B4C05DF079FE72A69D8C96C13AAD6B8631503449F83828872B949AC57D26200B826A308D316B4064D6E46FCDA41C05550DC9E483A00797BFD207EFB092A45DE9514C1BBD22178396BD39D891265658C238DEA00936C654E5E433CB65A26D9F6EDB5EBC14EBF49A45CB856E66048291F6939A9A81BB5C89177
310
38143CA680F4AA299D66A042CEB3354A2684DC9D8D178FE0D9B8B41CAAD720F880EE7EF93C0C18769E099ECC04D5A102C8049A8A05632F4DDF376CF1DE0F6BB65C2F8627B65A33C6BB62177CEBBDAD973006829F89F22E814B54F4BC2BE347F8AA8F681390B50FA73F804400B5F542E796F19FF974E7F78DB802FE05E20750
310
4B0304140006080800CC70623BE75B7789680500003C100000340000006662782F41393633353835312D344632462D344230382D423046372D3739314545314133324237412F6F626A656374732E786D6CAD575B8F9B3818FD2B887D06C22499CB8AA1CA655245D5B455A356FB305264C061D8018C6C3393D95FBFC7600890
310
A4CD5EF210B0B1BFEBF98E3F7B1FF6596ABC522E1296DF9BAE3D320D9A872C4AF2F8DE2CE5CEBA358D0FBEC719939D65A691938CDE9B6ADAF4BD98B3B2D05311DD91329583D9D5FC0F438434A7A611A644887B5384CF34233629258BA878B12322891DEFF6B66BD70BFB62634E8AE781D082709A4B588AF91C528CDA28B73F
310
1C998EEF39EABBEFA97FBD6A7C7E9553F9D3D79FE442923C3C523610337627CB87ABE99D359D4CC6D6E4FACAB5E6ABF9D2726FC6A3C5F56271377BB88362213924694B38DD99FE47C48627A1E7D49F5A8BB5E1A74C0A599ED3B0F21F1E56366B89112D681E218F0915D0D6F17AD41FBA2A369DCF6335D62ABBD39779D5DDD1
310
11D4D8DE3CBB96B2E04FB8202E41051754A1AA8E8F76B4C6DFE810B580B1547F4B84911149794252234D024EF8BBE963A95AE27B3D310A9D5C215C7960FAEE415ED75694C6AFB17BCACA5D99A60A9AA65F217B0BFC53292ACB92BF283FAD0D3621576592CB5BED907C2FA8E9DF794E35E97BEA31BED21FEB401ABB94C44839
310
DCACBF0E1C5DA8DA5B2F4DFFD32AD86F543D9E565E7056502E157C00AD2671CD534549AB752FCA9CDA00677A313F04E51B22FF19E57B300579E3C97EB29F682D92935CEC18CF901B7B54FD8C51F362B56FC72FE0B3C1EAE335EDCCBF5AEC39ADB17DC238973F804BA5E6F6BFE7AF1FB32E523BE9F3BD571418E3631DCA4D48
310
5250CF639223210A9446CA30052EDF057BD35F8329C1ECD84552BF0DC8D18BE7BCE23BFE6BD960AB4A7DE79923A103BEBD80F911CBAA2C60DB19B01CF164A5583B772EE6D3FFA56666CBCDA74DC97724A48F9A58967497E489C4D979006FD7A05E227A1EBDD0F737C623387A9C844D3709995625106D157315F8B8392CD4E0
310
A0B9A720C4BE9829CEF37EA1E13111214D53925356365ADA634861B52519DD27A00AEB808EAF0628E6F435519D446F45CF2C9CF5214F0A15B2F6D06B79DA3EE3CBF7F56780D2F4E7EF73A0F5E5B02A38D07DC852C6B7C1FBB6664213E0C39E3EBA7FF4E1AD23EA2829407C85E586727488B751B2DB9502BC7B228A3FD68B6E
310
A65A22397E690AA8D158D7E404EC8CDA235CC3B7D1898680131CEC2CDF2638C65196279577750F15884AEE19F94199155B92B13297978469D4F8D358DF0AEF7631E28DC8F0D9F437D5D39A83B2231A1D52D543813A824EF8D44BCFF2FA6A31BD1E8DAD87F1CCB526B3879935BF59CDADD5C37479BB1CDD4CA7B3556B516589
310
EF352754B706114D9C885EC9131DE6EFEB43D99AFE2391C2F958179413D7CFEF6B1B6DB1E7600F00DE6E5C67454A339A4BA2E0FBA85ED26F045D454F463DBFCE484C2F90F2E5E3666003662ED8F755951A7D1BECD5B30B550B2785C8E7320B7292A4838DDA71BBC863ED7613CAF659337A3354231D4FF4A182A54904C2898C
310
98B28C4AD0CE056CCF332A80986E571EE9DBC305BB5FEB7E509220A58D25CF042D712A806AC0AD0C657FDEF80D2D9CEAA2EE4D1C76F60BFE74219A06527D6F82DF6412526107381E55E353090704D085B52408A8913C4ED159D79BDA71BB4BC506F4831350EB6F975CD22D69BF7AC49B91A2C0A9DDA3D5CA36AD20FC478E37
310
E61844E2352865EBCB61A275A65283CAAA9DD27703B4102F5AF51EF5F573B75CBB5AD38BC845F7A49F82A0966A49C2E3EA5EA0ECD326CD965F1DB402C6FA8B51A4658C5C5E2EC9E214602E55810345408596591009A82E7E7FFACA19EEA299B14A0081A705CB3296EBC14CDF658DCD336EA6D1136881AAEB87B81AB9EE53D5
310
F5EB8BC8362082DA24122F98680A4E7930C01A0079749CEA14382A0783E5EBA5A10F8C098456A03D6A4AEB6BB881E2513747552A5DB22C7EDAF83BD5528081A365F7FF06504B0304140006080000CC70623B000000000000000000000000350000006662782F41393633353835312D344632462D344230382D423046372D37
310
39314545314133324237412F76657274696365732E62696E504B0304140006080800CC70623BF270F1330600000004000000360000006662782F41393633353835312D344632462D344230382D423046372D3739314545314133324237412F747269616E676C65732E62696E636660600000504B0304140006080000CC7062
310
3B000000000000000000000000370000006662782F41393633353835312D344632462D344230382D423046372D3739314545314133324237412F617474726962757465732E62696E504B0304140006080800CC70623B08DA0BD19000000041010000360000006662782F41393633353835312D344632462D344230382D4230
310
46372D3739314545314133324237412F6469726563746F72792E786D6C858F410AC3201045AF22B36F53E9A60B35CBEEBAE80D244E44489C6234F4F835464A48035D0DF398FF9F8AF63D0E6CC63039F212F8F9020C7D47C6792B21C5FE7403D62A1188E2E60C98D7234A5830286103A55745067B9D86B8A3CF9C7F90C11DE6
310
07FB144396D7B6A82D282E9A152AD114D5EF2CB866EEE831B8EEA07A7BB5A8D7D61A2BAAEB7FD5F70921FF497D00504B0304140006080800CC70623BEDD1DC58FD000000A00100003B0000006662782F41393633353835312D344632462D344230382D423046372D3739314545314133324237412F7265736F75726365732F
310
636F72652E786D6C8D504B6E833010BD0A9A6D65B00922041947112427E8052C33A156828DFCA97AFC9A40A576D7CDCCE87D344F8F9FBFE667F689CE6B6B3A6039850C8DB2A336530731DC4903D95970676DF82583CCC8193B5861107C72362E3BA4AC096842428D1D7107A5F7182053CF7474E0D507CE32973124857FE48B
310
540F3961CEF244279DE03EB81420DB9EAC1384436FA353E879B1B182C7A8C75DA3C7F453DF353A1075D537A7BA6464B8F535A99AE14A9A2BBD90E350DD183B5CFABE3AF262350B1EF4FC9351399401471025A527C218A1E53BAB5A5AB765F5469B96525EACF23FA6B88CFF34456DC2A1DCE36E360F82A5202F42F062ED2BAD
310
579969AFDD8A6F504B010214000A0000080000CC70623B3DEE336E79000000790000001B00000000000000000000000000000000006175746F6465736B2D64657369676E2D7061636B6167652E786D6C504B01021400140006080800CC70623BD486FD9CA0000000F40000001300000000000000000000000000B20000005B
310
436F6E74656E745F54797065735D2E786D6C504B01021400140006080800CC70623B853B8169EB0000007C010000080000000000000000000000000083010000636F72652E786D6C504B01021400140006080800CC70623B55019EA25F0000007C000000070000000000000000000000000094020000636E782E786D6C504B
310
01021400140006080800CC70623BDBABAAF470010000D40300000C00000000000000000000000000180300006662782F636F72652E786D6C504B01021400140006080800CC70623B9C113CC27E0000009D0000000B00000000000000000000000000B20400006662782F636E782E786D6C504B01021400140006080800CC70
310
623B7DF2F77C2A010000120200003100000000000000000000000000590500006662782F41393633353835312D344632462D344230382D423046372D3739314545314133324237412F636F72652E786D6C504B01021400140006080800CC70623BAD7543B64E010000330300003000000000000000000000000000D2060000
310
6662782F41393633353835312D344632462D344230382D423046372D3739314545314133324237412F636E782E786D6C504B01021400140006080800CC70623BE75B7789680500003C10000034000000000000000000000000006E0800006662782F41393633353835312D344632462D344230382D423046372D3739314545
310
314133324237412F6F626A656374732E786D6C504B01021400140006080000CC70623B0000000000000000000000003500000000000000000000000000280E00006662782F41393633353835312D344632462D344230382D423046372D3739314545314133324237412F76657274696365732E62696E504B01021400140006
310
080800CC70623BF270F133060000000400000036000000000000000000000000007B0E00006662782F41393633353835312D344632462D344230382D423046372D3739314545314133324237412F747269616E676C65732E62696E504B01021400140006080000CC70623B0000000000000000000000003700000000000000
310
000000000000D50E00006662782F41393633353835312D344632462D344230382D423046372D3739314545314133324237412F617474726962757465732E62696E504B01021400140006080800CC70623B08DA0BD1900000004101000036000000000000000000000000002A0F00006662782F41393633353835312D344632
310
462D344230382D423046372D3739314545314133324237412F6469726563746F72792E786D6C504B01021400140006080800CC70623BEDD1DC58FD000000A00100003B000000000000000000000000000E1000006662782F41393633353835312D344632462D344230382D423046372D3739314545314133324237412F7265
310
736F75726365732F636F72652E786D6C504B0506000000000E000E0080040000641100000000
  0
XRECORD
  5
1F8
102
{ACAD_REACTORS
330
1F7
102
}
330
1F7
100
AcDbXrecord
280
     1
 70
     1
 90
429727718
  1
30362254-06B7-45E0-A893-8CFA70E3D6BC
310
504B03040A0000080000CC70623B3DEE336E79000000790000001B0000006175746F6465736B2D64657369676E2D7061636B6167652E786D6C3C3F786D6C2076657273696F6E3D22312E302220656E636F64696E673D227574662D3822203F3E3C666F726D6174733E3C666F726D61743E687474703A2F2F736368656D612E
310
6175746F6465736B2E636F6D2F64657369676E2D7061636B6167652F323030393C2F666F726D61743E3C2F666F726D6174733E504B0304140006080800CC70623BD486FD9CA0000000F4000000130000005B436F6E74656E745F54797065735D2E786D6C7D8EC10E82300C865F65E91D8A1E8C310C0EEA1BF002731658846E
310
D98AC1B77784ABF1D8FE5FBFBF75BBCE937A534CCEB38643598122B6FEE978D0B0485F9C41B54DDD7D022595594E1A469170414C76A4D9A4D207E29CF43ECE46F218070CC6BECC4078ACAA135ACF422C856C0E68EA1BF5669944DDD7BCDE7B1F8E415D77AECB980613C2E4AC91FC167A2B244592486606FC29C8FD7F045B9A
310
EF7053A7E60B504B0304140006080800CC70623B1EC5D7A3EB0000007C01000008000000636F72652E786D6C8D90416EC3201045AF82665B6103C6756C6122AB4D4ED00B204C5C94182C03558F5F9C3852BBEB6A467FFE9B197D71FC9E6FE8CBACC17AD7032D0820E3B41FAD9B7A48F1820F808E52ACDEC75F36404ECDA687
310
4D0629A6D5A76597B477D1B89855E747B38B2A041301E95B6E7A08FAD3CCAA50296647B8168BD2573599823EBB0CA76447F43862C7BCCF5EAC59410E4DDD9C7973C2755553CCCFA4C603E3040F1565ED3B1FDE4E432BCA0D9622DAF9795FAF464533826484B498524CD807E51D79ED187F21878E10516EF63F505AC67F42C9
310
BA58B1FDDD071640D2FCC87D2045B96591CB3DA85CB7DCE40F504B0304140006080800CC70623B55019EA25F0000007C00000007000000636E782E786D6C4DCB3B0E80201045D1AD90E915ED2CF8AC45050C11660C8261F98AB1B07AC9C97D42D718D865D3E909258CFD00CCE24AC6E326A164D74DC0B4128928FF32603847
310
2BA13128B1252AC747C6BAB984FC68F0B87FE8960A5C09FE86CFB69FBA01504B0304140006080800CC70623B8C9102E971010000D40300000C0000006662782F636F72652E786D6CC5535B6E833010BC8AE5DF0A6C08340F1947A84D4ED00B38C6A128602363A31CBFCB234A53A551FA553EC09AD9F5CE8C31DB9E9B1AF5CA
310
7695D1198E428A91D2D214952E33ECDD315861B4E5CC1AE3BE9561A445A3323CC098B3D21ADFCE9034DA29ED00D5A6503328BA4E398C640D8B0C77F253352214DE4145770A5B214FA2546114020D759C75CE8200340D19DE981F0F6746269C33EFAB6266AB02A655C74A59CCF365BADC27CB5D902ED22848F6340DF238A141
310
BE88E2F57B92BFEDF23523433367AE6A2EEAA455C2A902F398D2751045018D3FA264435F3771F242571B4A1919CA6F9A7C5B3CD9E42BED16F12C776AEB308F40C848FC700B1139D4891EF410CEC810227CC6846F8386402064270EF5C5C709A05E49676C024C61FC95EA45ED154CA5211D1FF4FB8291A913A68E9B83EBBB33
310
E2A7673CDE118E5AE8124C0807CB8377834E366998436B950D7A7746DAD846D4CFD978E0F04FD455FC5D49D2D4C6FE9722321F10997F0F32DC47FE05504B0304140006080800CC70623BFFEA85907E0000009D0000000B0000006662782F636E782E786D6C4DCCD10A83201886E15B91FFDC95D95A811AB6F23E625948A6C3
310
E9D8E5AF46073BFAE0E1E365ED67B3E8ADC3CB78C7815C7240DA3DFC64DCC221C519D7805AC182F7F1EF06C88D9BE6703008B6049F9E274D7A1E938DBB5AE3D6131B2589BA0D3D965551E0B2EA732C9B9A624AAEB41E3A557677029960D9AFB4EF11165F504B0304140006080800CC70623B4FEEA4082C0100001202000031
310
0000006662782F39464131463745442D413632322D343644302D413938332D3331353338454246344243312F636F72652E786D6C8D515B6EC32010BC0AE2AB55850DD871ED0813254D72825EC00192A2C460F1A872FC42ED48ED5F7E00CDCECCCEB26C731F6FE05B39AFADE921293004CA082BB5B9F43086336A21D870E6AC
310
0D7F68109861543DCC30E4ECE26C9C164858139409093556AA051CBC570102714B8F1E7AF1A5C6A11862480C7F2DA6415C878B2A4891CA89C7990F2E050073937C42DE1DB7E4F87ED8A36D4329AA9B3D46DBAEAD504556557BD81DEBDD0761E52CE42C462D17B996298E3E6BE59E35C962CE821E1FF18553435012728A7187
310
0841987E927A8D9B35ADDF70BBC6989599FE4F1427F9A4286A132ABAC49D651EF234CD5CE04CDA78BA3DC2A8FB645D00B9DF8B57E215725C60BCA2A463E54C4CE327C7A65E1C7DB02E7DEFCBF594B864C5CA6CDBD49C957943E9FA5D5FBAF336F90F504B0304140006080800CC70623BAD7543B64E01000033030000300000
310
006662782F39464131463745442D413632322D343644302D413938332D3331353338454246344243312F636E782E786D6CD593CD6EC32010845F0571AD6CE3D48AD20813A9873E410FBD12D82434182C7EAAE6EDBB2424CD25871E7B41D6EC30B3FA84F9E67BB2E40B4234DE8DB46F1925E094D7C6ED479AD3AE5951B2113C
310
789FEE6C943839C1488B4C05DF079FE72A69D8C96C13AAD6B8631503449F83828872B949AC57D26200B826A308D316B4064D6E46FCDA41C05550DC9E483A00797BFD207EFB092A45DE9514C1BBD22178396BD39D891265658C238DEA00936C654E5E433CB65A26D9F6EDB5EBC14EBF49A45CB856E66048291F6939A9A81BB5
310
C8917738143CA680F4AA299D66A042CEB3354A2684DC9D8D178FE0D9B8B41CAAD720F880EE7EF93C0C18769E099ECC04D5A102C8049A8A05632F4DDF376CF1DE0F6BB65C2F8627B65A33C6BB62177CEBBDAD973006829F89F22E814B54F4BC2BE347F8AA8F681390B50FA73F804400B5F542E796F19FF974E7F78DB802FE05
310
E207504B0304140006080800CC70623B16AB87BA640500003C100000340000006662782F39464131463745442D413632322D343644302D413938332D3331353338454246344243312F6F626A656374732E786D6CAD575B6FA33818FD2B887DE6924B3BED8A326A92B68A663B534DD4D13E548A0C38942D60649B369D5FBFC7
310
600890A493BDE42160637FD7F31D7FF63E6FB3D478A55C242CBF3247B66B1A340F5994E4F19559CA8D75611A9F7D8F33263BCB4C232719BD32D5B4E97B316765A1A722BA21652A07B3B7B33F0D11D29C9A46981221AE4C113ED38CD8A4942CA2E2C58E882476BCD9DA23BB5ED8171B73523C0F841684D35CC252CCE79062D4
310
468DFA43D7747CCF51DF7D4FFDEB5593E3AB9CCA9FBEFE241792E4E19EB28198C968BAB8199F5D5A67D3E9C49A9E8F47D6EC76B6B0469F26EEFC7C3EBFBCBEB98462213924694B38DD98FE1D62C393D073EA4FADC5DAF04326852CCF6958F90F0F2B9BB5C48816348F90C7840A68EB78EDF68723159BCEE7891A6B95DDE9D3
310
BCEAEEE8086A6C6F9E5D4B59F0175C10A7A0820BAA5055C7473B5AE3CFDD452D602CD5DF12616444529E90D448938013FE6EFA58AA96F85E4F8C42275708571E98FE6827AF6B2B4AE3D7D83D64E5A64C53054DD3AF90BD06FEA9149565C94FCA0F6B834DC85599E4F2423B24DF0B6AFA979E534DFA9E7A4CC6FA631D486393
310
921829879BF5D781A373557BCB85E97FB90DB62B558F8795179C15944B051F40AB495CF35451D26A4727654E6D8033BD98EF82F21D91FF8AF2DD9982BCF1643BDD4EB516C9492E368C67C88DED563FC36D5EACF66DFF057C3658BDBFA69DF9578B3DA735B64F18C7F20770A9D45CFCF7FCF563D6456A277DBEF78A02637CA2
310
43B90A490AEAB94F72244481D24819A6C0E59B606BFA4B3025981DBB48EAB701D97BF19C577CC77F2D1B6C55A9EF3C732474C0B727303F625995056C3B02963D9EAC146BE78EC5FCEC7FA999EBC5EACBAAE41B12D27B4D2C0BBA49F244E2ECDC81B76B502F113D8F5EE8FB1BE3111CDD4FC2AA9B844CAB1288B68AB90A7CDC
310
1C166AB0D3DC5310625FCC14E779BFD0709F8890A629C9292B1B2DED31A4B0DA928CEE135085754027E3018A397D4D5427D15BD1330B677DC8934285AC3DF45A9EB68FF8F2B8FC0A509AFEECFD0FF2DE25CC6047F7214B195F07EFEB9A094D800F7BFAE8FED187B78EA8A3A400F115961BCAD1215E47C966530AF0EE8128FE
310
58CEBB996A8964FFA529A046635D9353B0336A8F700DDF46271A024E70B0B37C9DE01847591E54DED53D54202AB947E4076556AC49C6CA5C9E1226B7F1A7B1BE15DEED62C41B91E1B3E9AFAAA735036547343A925075041DF0A9979E893B391F8FCFA6967B3EFB644DCF6E5CEBFAE272625DCC6FAF3FB93793C5F90CE1EF57
310
407342756B10D1C489E8953CD1617E5CEECAD6F4EF8914CE5D5D504E5C3F1F9736DA62CFC11E00BCDDB8CC8A9466349744C1F75EBDA4DF09BA8A9E8C7A7E9991989E20E5DBDD6A6003664ED8F7A04A8DBE0DF6EAD9B9AA858342E47399053949D2C146EDB85DE4B176BB0965FBAC19BD19AA918E27FA50C1D22402E144464C
310
59462568E704B6E71915404CB72B8FF4EDE184DDAF753F284990D2C6926782963815403548A70C657FDEF80D2D9CEAA2AE4C1C76F60BFE74219A06527D6582DF6412526107381E55E353090704D085B52408D0933C4ED159D79BDA71BB4BC506F4831350EB6F979CD22D69BF7AC49B91A2C0A9DDA3D5CA36AD20FC478E37E6
310
1844E2352865EBCB6EA275A652E3836BE04EFB400BF1A2556F515F1FBB35B2AB35BD889C744FFA1004B5544B121E57F70215746DD2F5E2C1412B602CBF19455AC6C8E5E9922C4E01E65215385004546899059180EAFCF7A707CE7017CD8CDB0410789AB32C63B91E5CEBBBACB17AC6CD347A022D5075FD106377347AAABA7E
310
7D11590744509B44E205134DC1290F06580320F78E537D3D73540E06CB970B431F185308AD40BBD794D6D77003C5A36E8EAA54BA64597CD8F83BD552A080A365F7FF06504B0304140006080000CC70623B000000000000000000000000350000006662782F39464131463745442D413632322D343644302D413938332D3331
310
353338454246344243312F76657274696365732E62696E504B0304140006080800CC70623BF270F1330600000004000000360000006662782F39464131463745442D413632322D343644302D413938332D3331353338454246344243312F747269616E676C65732E62696E636660600000504B0304140006080000CC70623B
310
000000000000000000000000370000006662782F39464131463745442D413632322D343644302D413938332D3331353338454246344243312F617474726962757465732E62696E504B0304140006080800CC70623B08DA0BD19000000041010000360000006662782F39464131463745442D413632322D343644302D413938
310
332D3331353338454246344243312F6469726563746F72792E786D6C858F410AC3201045AF22B36F53E9A60B35CBEEBAE80D244E44489C6234F4F835464A48035D0DF398FF9F8AF63D0E6CC63039F212F8F9020C7D47C6792B21C5FE7403D62A1188E2E60C98D7234A5830286103A55745067B9D86B8A3CF9C7F90C11DE607
310
FB144396D7B6A82D282E9A152AD114D5EF2CB866EEE831B8EEA07A7BB5A8D7D61A2BAAEB7FD5F70921FF497D00504B0304140006080800CC70623B0D6EF93BFE000000A00100003B0000006662782F39464131463745442D413632322D343644302D413938332D3331353338454246344243312F7265736F75726365732F63
310
6F72652E786D6C8D50596E833010BD0A9ADFCA60B334011947A8694ED00B586642AC041B79A97AFC9A40A5F6AF3F33A3B7689E1E3F7DCD8FEC139DD7D6F4C0720A191A65476DA61E62B892236427C19DB5E1970C322367EC618541F0C9D9B8EC90B226A009093576C41D94DE63804C3DD2D18357379C652E63480A7FCF17A9
310
EE72C29CE5894E3AC17D702940B63D59270887DE46A7D0F36263058F518FBB468FE9A7BE6A7420864373B8D4873369AA8691FA421B3294352543C5CAF65C0F6FEF43CB8BD52C78D0F34F46E550061C419494B6843142CB0F5677F4B52BEB177AEC28E5C52AFF638ACBF84F53D42654E51E77B379102C05791282176B5F693D
310
CB4C7BED567C03504B010214000A0000080000CC70623B3DEE336E79000000790000001B00000000000000000000000000000000006175746F6465736B2D64657369676E2D7061636B6167652E786D6C504B01021400140006080800CC70623BD486FD9CA0000000F40000001300000000000000000000000000B20000005B
310
436F6E74656E745F54797065735D2E786D6C504B01021400140006080800CC70623B1EC5D7A3EB0000007C010000080000000000000000000000000083010000636F72652E786D6C504B01021400140006080800CC70623B55019EA25F0000007C000000070000000000000000000000000094020000636E782E786D6C504B
310
01021400140006080800CC70623B8C9102E971010000D40300000C00000000000000000000000000180300006662782F636F72652E786D6C504B01021400140006080800CC70623BFFEA85907E0000009D0000000B00000000000000000000000000B30400006662782F636E782E786D6C504B01021400140006080800CC70
310
623B4FEEA4082C0100001202000031000000000000000000000000005A0500006662782F39464131463745442D413632322D343644302D413938332D3331353338454246344243312F636F72652E786D6C504B01021400140006080800CC70623BAD7543B64E010000330300003000000000000000000000000000D5060000
310
6662782F39464131463745442D413632322D343644302D413938332D3331353338454246344243312F636E782E786D6C504B01021400140006080800CC70623B16AB87BA640500003C1000003400000000000000000000000000710800006662782F39464131463745442D413632322D343644302D413938332D3331353338
310
454246344243312F6F626A656374732E786D6C504B01021400140006080000CC70623B0000000000000000000000003500000000000000000000000000270E00006662782F39464131463745442D413632322D343644302D413938332D3331353338454246344243312F76657274696365732E62696E504B01021400140006
310
080800CC70623BF270F133060000000400000036000000000000000000000000007A0E00006662782F39464131463745442D413632322D343644302D413938332D3331353338454246344243312F747269616E676C65732E62696E504B01021400140006080000CC70623B0000000000000000000000003700000000000000
310
000000000000D40E00006662782F39464131463745442D413632322D343644302D413938332D3331353338454246344243312F617474726962757465732E62696E504B01021400140006080800CC70623B08DA0BD190000000410100003600000000000000000000000000290F00006662782F39464131463745442D413632
310
322D343644302D413938332D3331353338454246344243312F6469726563746F72792E786D6C504B01021400140006080800CC70623B0D6EF93BFE000000A00100003B000000000000000000000000000D1000006662782F39464131463745442D413632322D343644302D413938332D3331353338454246344243312F7265
310
736F75726365732F636F72652E786D6C504B0506000000000E000E0080040000641100000000
  0
XRECORD
  5
175
102
{ACAD_REACTORS
330
173
102
}
330
173
100
AcDbXrecord
280
     1
270
     1
271
     1
  0
XRECORD
  5
174
102
{ACAD_REACTORS
330
173
102
}
330
173
100
AcDbXrecord
280
     1
270
     1
271
     1
  0
XRECORD
  5
1FB
102
{ACAD_REACTORS
330
173
102
}
330
173
100
AcDbXrecord
280
     1
 70
     0
 90
1673772943
  1
ECE7A1D2-D628-4531-984C-D00F80459256
310
504B03040A0000080000CC70623B3DEE336E79000000790000001B0000006175746F6465736B2D64657369676E2D7061636B6167652E786D6C3C3F786D6C2076657273696F6E3D22312E302220656E636F64696E673D227574662D3822203F3E3C666F726D6174733E3C666F726D61743E687474703A2F2F736368656D612E
310
6175746F6465736B2E636F6D2F64657369676E2D7061636B6167652F323030393C2F666F726D61743E3C2F666F726D6174733E504B0304140006080800CC70623BD486FD9CA0000000F4000000130000005B436F6E74656E745F54797065735D2E786D6C7D8EC10E82300C865F65E91D8A1E8C310C0EEA1BF002731658846E
310
D98AC1B77784ABF1D8FE5FBFBF75BBCE937A534CCEB38643598122B6FEE978D0B0485F9C41B54DDD7D022595594E1A469170414C76A4D9A4D207E29CF43ECE46F218070CC6BECC4078ACAA135ACF422C856C0E68EA1BF5669944DDD7BCDE7B1F8E415D77AECB980613C2E4AC91FC167A2B244592486606FC29C8FD7F045B9A
310
EF7053A7E60B504B0304140006080800CC70623BD9DDAED0EC0000007C01000008000000636F72652E786D6C8D90416EC3201045AF82665B61836D9CD8C2444DD39CA01740405C94182C03558F5F9C3852BBEB6A467FFE9B197D7EF89E6EE8CB2CC17A37002D0820E394D7D68D03A478C17B4007C117EFE32F1B20272733C0
310
2A83E0E3E2D3BC49CABB685CCCAAF3DA6CA20CC14440EA969B0182FA34932C648AD911AEC52CD5558EA6A0CF2EC329598D1E47ACCEFBECC59A050463A7EA5833865FEBDD0E37353BE3EE8DBDE3F6786A48D375FBF6CC78B9C282473B3DEFABC5C86834888A900E538A49F5419B9EB47DD5BC907D4F082F57FB1F28CDFA9F50
310
B22ED6D5F6EE030B20687EE43E10BC5CB3C8E51E54AE6B6EE207504B0304140006080800CC70623B55019EA25F0000007C00000007000000636E782E786D6C4DCB3B0E80201045D1AD90E915ED2CF8AC45050C11660C8261F98AB1B07AC9C97D42D718D865D3E909258CFD00CCE24AC6E326A164D74DC0B4128928FF326038
310
472BA13128B1252AC747C6BAB984FC68F0B87FE8960A5C09FE86CFB69FBA01504B0304140006080800CC70623BA24EB22D72010000D40300000C0000006662782F636F72652E786D6CC5535B6E833010BC8AE5DF0A6C5E49888CA3A6694ED00B38E05014B091B1518EDFE511A5A9D228FD2A1F60CDEC7A67C6986DCE4D8D7A
310
69BA4AAB0C073EC548AA5C17952A33ECECD15B61B4E1CC686DBF9561A44423333CC098B3D268D7CE50AE9595CA02AA74216750749DB418E5352C32DCE59FB211BE70162ABA93DF8AFC244AE9073ED050C759670D0840D390E18DF9F1706664C23973AE2A66B62A605A75ACA4C13C4976E1364A12EF355A2EBD384AF65EFA96
310
BC7B8BED2EA6719AAE16FB8491A199335B351775B991C2CA02F390D2D40B028F861F41BCA68B7518BFD0D59A524686F29B26D7164F36B94AD9289CE54E6D1DE6010819891F6E21228B3AD1831EC219194284CF98F06DD01008846CC5A1BEF83801D4CBDC6A1303536877A57A513B0953A94FC707FDBE6064EA84A9E3E6E0FA
310
EE8CF0E9198F7784A316AA0413C2C2F2E0ECA0934D1AE6D05A69BCDE9E91D2A611F573361E38FC1375157F5752AE6B6DFE4B11990F88CCBF0719EE23FF02504B0304140006080800CC70623B408A7D3B7C0000009D0000000B0000006662782F636E782E786D6C4DCCD10A83201886E15B91FFDC552A92A0064DBC8F581632
310
D3703A76F9ABD1C18E3E78F878E5F0D9027ABBFCF2292AE86E2D20171F69F6715550CB827B40839639A5F2770314A7CD293819B45C73AAFB45B35BA61ACAA1C1C7E7855C58C15BC331339661262CC762340413D68D77DA5B42298546CBE6573AF60CEB2F504B0304140006080800CC70623B449FB9BD290100001202000031
310
0000006662782F36394639363044362D344446342D343946362D394244322D3234314243333846323333332F636F72652E786D6C8D515B6EC32010BC0AE22B55850D98B871848994463E412FE002495162B07854397EA176A4F62F3F2C9A9D991D587EB84F37F0AD7D30CEF6905418026DA553C65E7A98E219ED203808EE9D
310
8B7F6810D871D23D2C3014FCE25D9A57483A1BB58D19B54EE9151C43D0110279CB971E06F9A5A7B11A53CC8C70ADE6515EC78BAE4895DB992778883E0700CB907242D17643D7E2538BD869608875438BBAE38922CAC8F1BDD90DB4691A5E2F42C153326A951B95E398B3D1FE599322163C9AE9115F7A3D46ADA0A018778810
310
84E907617BDCEE297BC5BB3DC6BC2EF47FA234AB2745C9D8D8D035EE220B50105E2F0DC1954B9FB747187D9F9D8FA0CCDB042D5FA0C015C65B42DF78BD10F3F3B363CB56C7109DCFDFBBB97E662ED92EB62D13BC2E1BCAE5777DB9966D8A1F504B0304140006080800CC70623BAD7543B64E01000033030000300000006662
310
782F36394639363044362D344446342D343946362D394244322D3234314243333846323333332F636E782E786D6CD593CD6EC32010845F0571AD6CE3D48AD20813A9873E410FBD12D82434182C7EAAE6EDBB2424CD25871E7B41D6EC30B3FA84F9E67BB2E40B4234DE8DB46F1925E094D7C6ED479AD3AE5951B2113C789FEE
310
6C943839C1488B4C05DF079FE72A69D8C96C13AAD6B8631503449F83828872B949AC57D26200B826A308D316B4064D6E46FCDA41C05550DC9E483A00797BFD207EFB092A45DE9514C1BBD22178396BD39D891265658C238DEA00936C654E5E433CB65A26D9F6EDB5EBC14EBF49A45CB856E66048291F6939A9A81BB5C89177
310
38143CA680F4AA299D66A042CEB3354A2684DC9D8D178FE0D9B8B41CAAD720F880EE7EF93C0C18769E099ECC04D5A102C8049A8A05632F4DDF376CF1DE0F6BB65C2F8627B65A33C6BB62177CEBBDAD973006829F89F22E814B54F4BC2BE347F8AA8F681390B50FA73F804400B5F542E796F19FF974E7F78DB802FE05E20750
310
4B0304140006080800CC70623B8D05915C650500003B100000340000006662782F36394639363044362D344446342D343946362D394244322D3234314243333846323333332F6F626A656374732E786D6CAD575B6FA33814FE2B887D06429276DA1565D4266D158D3A339A6846FB502932E050B66023DB74D2FDF5FB190C01
310
9276B2973C046C8ECFF53B17071F77456EBD502133CEAE6CDF9DD81665314F32965ED995DA3A17B6F5310C04E7AA47665B8C14F4CAD6DB7618A48257A5D94AE89654B91AEDDEDDFC61C998326A5B714EA4BCB265FC440BE2924AF184CA6737218AB8E976E7FA6E4338649B0A523E8D98964450A6A029F619B8588D52FE7039
310
B1BD30F0F4F730D0FF866AF6369557DB33949F31A9088B0F848DD8CCFCF9F2767A76E99CCDE733677E3EF59D9BBB9BA5E37F984D16E78BC5E5F5ED25044B25C0C96822E8D60EEFE11B91C581D77CEA34368A1F5329E68CD1B8B61F16D63A1B8E092D294B10C78C4A48EB593D192E7DED9BDEE7995E1B91FDEDD3ACEA9FE831
310
6A756F9F7D4D79F4274C90A7A04248AA51D5F8C718DAE06FB2F75AC4796EBE65D22A88A22223B995679120E2D50E41AA49C260C046A35368846B0BECD0DFF3EBEB8AD4F835768F69B9ADF25C43D30E6B646F807FAA64AD59F61715C7A54127C4AACA98BA3006A9D792DAE165E0D59B61A01FB3A9F9D838D2DAE62445C86166
310
F37564E842E7DE6A69879FEEA2DD5AE7E371E1A5E025154AC307D06A03D73EB5978C58FFA4C8E9033066E0F3BD53BEC1F39F91BE7B55103791EDE6BBB991A2046172CB4581D8B893FA674DDA17A77B3B7C413D1B511FD2743BFF8A38F03A658705E3ADF8015C3A3417FF3D7E439FF591DA0B5F18BC20C1B8981957AE6392A3
310
F43C640C01D1A0B4728E2DD4F26DB4B3C3152A252A3B4E913CEC1C72F012782FF88EFF8637AA552DBEF76408E8A8DE9E50F9E1CB3A2DA0DB1B6039A893B56063DC5B3E3FFB5F72E67AB9FEB4AEC496C4F4C1149625DD662C53E89D7BF0F6151A046260D1337DFDC94502430F83B0EE07A130A224BCAD7DAE1D9FB6CD422FF6
310
920702629C4BB9AE79C12F243C6432A6794E18E5552BA56B431AAB5D91317302B2B071E86C3A42B1A02F999E24061403B5D0EB639195DA655DD3EBEAB4FB862DDF579F014AD0E73C22F99E28DA57FB98E75C6CA2D74D53086D600F4786E0FE3144B771A8A7B900F03594DB8A633CBC49B2EDB69228BB479CF863B5E807AAAB
310
23872F6DFEB4129B949CA33823F58830E86D65621E10047D9DB34D862E8EAC3C2ABC2F7B2C40D67CDFE01F5545B92105AF983AC54D93D69E56FB8E797F88913F898A9FEC705D3F9D1B54EC8426FB500D40A03BD0119B06E1B95DDC7EB8F6975367793EBD70E66733DFB9BC982F9CE564727731999F5D4ECFCE3B8D6A4DC2A0
310
6D50FD148437D110834A64C6CDDF57FBACB5C307A2A477DFE4939736CFEF2B175371E0E10CF0DD1D5C15654E0BCA14D1E87DD02FF93782A162C0A3D95F1524A52770F972BF1EE9809D13CE7DD599467F8ECE9ADD85CE85A34CD45355448C64F9E8A031DC2D596ACC6E5DD93D9B82DE2EF5CAF81363A8E47996A0DE24564A79
310
4115AACE09C55E14540231FDA13C319787134EBF34E3A022514E5B4D9E0826E25C02D5805B15ABE1BEF51B26383D445DD9E875EE33FE4C22DA16427D65A3BCA92CA6D28DD01DF5DC53330704308475351050232CCD31583787BA75774AFB06E5070DD0C8EF484E19968C5D83BA5B90B244D31E54D55A372320FE4786B7EA58
310
44E135AA5467CB7EA333A61683CC6A8C3257034C10CF46F40EF9F5BE59BE5BD30C3C72D235E95D10345C1D45445A5F0BB47E46A5EBE5570F9380B5FA629579952296A773720405982B9DE04011506178964401AA8BDF1FBF0A8EAB6861DD6580C0E38217056766716DAEB2D6FA0917D3E4116581EADB879C4E7CFFB11EFACD
310
3D641311495D92C8676CB409A72D18610D803CE8A626049E8EC1887CB5B44CC39883690DDA8399B4B9855B481E7D71D4A9D22F96E5BB73BF5793020C02137BF837504B0304140006080000CC70623B000000000000000000000000350000006662782F36394639363044362D344446342D343946362D394244322D32343142
310
43333846323333332F76657274696365732E62696E504B0304140006080800CC70623BF270F1330600000004000000360000006662782F36394639363044362D344446342D343946362D394244322D3234314243333846323333332F747269616E676C65732E62696E636660600000504B0304140006080000CC70623B0000
310
00000000000000000000370000006662782F36394639363044362D344446342D343946362D394244322D3234314243333846323333332F617474726962757465732E62696E504B0304140006080800CC70623B08DA0BD19000000041010000360000006662782F36394639363044362D344446342D343946362D394244322D
310
3234314243333846323333332F6469726563746F72792E786D6C858F410AC3201045AF22B36F53E9A60B35CBEEBAE80D244E44489C6234F4F835464A48035D0DF398FF9F8AF63D0E6CC63039F212F8F9020C7D47C6792B21C5FE7403D62A1188E2E60C98D7234A5830286103A55745067B9D86B8A3CF9C7F90C11DE607FB14
310
4396D7B6A82D282E9A152AD114D5EF2CB866EEE831B8EEA07A7BB5A8D7D61A2BAAEB7FD5F70921FF497D00504B0304140006080800CC70623BCA768048FE000000A00100003B0000006662782F36394639363044362D344446342D343946362D394244322D3234314243333846323333332F7265736F75726365732F636F72
310
652E786D6C8D50596E833010BD0A9ADFCA60D600328E9AA639412F609909B1126CE4A5EAF16B0295DABFFECC8CDEA2797AECF8353F924FB44E193D409E5248504B332A3D0D10FC95B4901C39B3C6F85F3248B49871801506CE266BC2B243D2688FDA47549B11775038871E12F988C7004EDE7016A9083E2ADC3D5D84BC8B09
310
D33C8D74D471E6BC8D0192EDC93A815B742658898E651BCB59086ADC356A8C3FD555A1055ED7E7E254D615792D0F075295F585746FF53B694EE78A565DD736979A65AB9933AFE69F8CD2A2F038022F28ED489E135A7CE4554F9BBEA85E68DB53CAB255FEC71496F19FA6A0B42F8B3DEE6673C0F318E4497096AD7DC5F52C33
310
EEB55BFE0D504B010214000A0000080000CC70623B3DEE336E79000000790000001B00000000000000000000000000000000006175746F6465736B2D64657369676E2D7061636B6167652E786D6C504B01021400140006080800CC70623BD486FD9CA0000000F40000001300000000000000000000000000B20000005B436F
310
6E74656E745F54797065735D2E786D6C504B01021400140006080800CC70623BD9DDAED0EC0000007C010000080000000000000000000000000083010000636F72652E786D6C504B01021400140006080800CC70623B55019EA25F0000007C000000070000000000000000000000000095020000636E782E786D6C504B0102
310
1400140006080800CC70623BA24EB22D72010000D40300000C00000000000000000000000000190300006662782F636F72652E786D6C504B01021400140006080800CC70623B408A7D3B7C0000009D0000000B00000000000000000000000000B50400006662782F636E782E786D6C504B01021400140006080800CC70623B
310
449FB9BD290100001202000031000000000000000000000000005A0500006662782F36394639363044362D344446342D343946362D394244322D3234314243333846323333332F636F72652E786D6C504B01021400140006080800CC70623BAD7543B64E010000330300003000000000000000000000000000D20600006662
310
782F36394639363044362D344446342D343946362D394244322D3234314243333846323333332F636E782E786D6C504B01021400140006080800CC70623B8D05915C650500003B10000034000000000000000000000000006E0800006662782F36394639363044362D344446342D343946362D394244322D32343142433338
310
46323333332F6F626A656374732E786D6C504B01021400140006080000CC70623B0000000000000000000000003500000000000000000000000000250E00006662782F36394639363044362D344446342D343946362D394244322D3234314243333846323333332F76657274696365732E62696E504B010214001400060808
310
00CC70623BF270F13306000000040000003600000000000000000000000000780E00006662782F36394639363044362D344446342D343946362D394244322D3234314243333846323333332F747269616E676C65732E62696E504B01021400140006080000CC70623B00000000000000000000000037000000000000000000
310
00000000D20E00006662782F36394639363044362D344446342D343946362D394244322D3234314243333846323333332F617474726962757465732E62696E504B01021400140006080800CC70623B08DA0BD190000000410100003600000000000000000000000000270F00006662782F36394639363044362D344446342D
310
343946362D394244322D3234314243333846323333332F6469726563746F72792E786D6C504B01021400140006080800CC70623BCA768048FE000000A00100003B000000000000000000000000000B1000006662782F36394639363044362D344446342D343946362D394244322D3234314243333846323333332F7265736F
310
75726365732F636F72652E786D6C504B0506000000000E000E0080040000621100000000
  0
XRECORD
  5
176
102
{ACAD_REACTORS
330
173
102
}
330
173
100
AcDbXrecord
280
     1
270
     1
271
     1
  0
XRECORD
  5
177
102
{ACAD_REACTORS
330
173
102
}
330
173
100
AcDbXrecord
280
     1
270
     1
271
     1
  0
CELLSTYLEMAP
  5
303292C
102
{ACAD_REACTORS
330
162
102
}
330
162
100
AcDbCellStyleMap
 90
        3
300
CELLSTYLE
  1
TABLEFORMAT_BEGIN
 90
        5
170
     1
 91
        0
 92
    32768
 62
   257
 93
        1
300
CONTENTFORMAT
  1
CONTENTFORMAT_BEGIN
 90
        0
 91
        0
 92
      512
 93
        0
300

 40
0.0
140
1.0
 94
        5
 62
     0
340
11
144
6.0
309
CONTENTFORMAT_END
171
     1
301
MARGIN
  1
CELLMARGIN_BEGIN
 40
1.5
 40
1.5
 40
1.5
 40
1.5
 40
4.5
 40
4.5
309
CELLMARGIN_END
 94
        6
 95
        1
302
GRIDFORMAT
  1
GRIDFORMAT_BEGIN
 90
        0
 91
        1
 62
     0
 92
       -2
340
14
 93
        0
 40
1.125
309
GRIDFORMAT_END
 95
        2
302
GRIDFORMAT
  1
GRIDFORMAT_BEGIN
 90
        0
 91
        1
 62
     0
 92
       -2
340
14
 93
        0
 40
1.125
309
GRIDFORMAT_END
 95
        4
302
GRIDFORMAT
  1
GRIDFORMAT_BEGIN
 90
        0
 91
        1
 62
     0
 92
       -2
340
14
 93
        0
 40
1.125
309
GRIDFORMAT_END
 95
        8
302
GRIDFORMAT
  1
GRIDFORMAT_BEGIN
 90
        0
 91
        1
 62
     0
 92
       -2
340
14
 93
        0
 40
1.125
309
GRIDFORMAT_END
 95
       16
302
GRIDFORMAT
  1
GRIDFORMAT_BEGIN
 90
        0
 91
        1
 62
     0
 92
       -2
340
14
 93
        0
 40
1.125
309
GRIDFORMAT_END
 95
       32
302
GRIDFORMAT
  1
GRIDFORMAT_BEGIN
 90
        0
 91
        1
 62
     0
 92
       -2
340
14
 93
        0
 40
1.125
309
GRIDFORMAT_END
309
TABLEFORMAT_END
  1
CELLSTYLE_BEGIN
 90
        1
 91
        1
300
_TITLE
309
CELLSTYLE_END
300
CELLSTYLE
  1
TABLEFORMAT_BEGIN
 90
        5
170
     1
 91
        0
 92
        0
 62
   257
 93
        1
300
CONTENTFORMAT
  1
CONTENTFORMAT_BEGIN
 90
        0
 91
        0
 92
      512
 93
        0
300

 40
0.0
140
1.0
 94
        5
 62
     0
340
11
144
4.5
309
CONTENTFORMAT_END
171
     1
301
MARGIN
  1
CELLMARGIN_BEGIN
 40
1.5
 40
1.5
 40
1.5
 40
1.5
 40
4.5
 40
4.5
309
CELLMARGIN_END
 94
        6
 95
        1
302
GRIDFORMAT
  1
GRIDFORMAT_BEGIN
 90
        0
 91
        1
 62
     0
 92
       -2
340
14
 93
        0
 40
1.125
309
GRIDFORMAT_END
 95
        2
302
GRIDFORMAT
  1
GRIDFORMAT_BEGIN
 90
        0
 91
        1
 62
     0
 92
       -2
340
14
 93
        0
 40
1.125
309
GRIDFORMAT_END
 95
        4
302
GRIDFORMAT
  1
GRIDFORMAT_BEGIN
 90
        0
 91
        1
 62
     0
 92
       -2
340
14
 93
        0
 40
1.125
309
GRIDFORMAT_END
 95
        8
302
GRIDFORMAT
  1
GRIDFORMAT_BEGIN
 90
        0
 91
        1
 62
     0
 92
       -2
340
14
 93
        0
 40
1.125
309
GRIDFORMAT_END
 95
       16
302
GRIDFORMAT
  1
GRIDFORMAT_BEGIN
 90
        0
 91
        1
 62
     0
 92
       -2
340
14
 93
        0
 40
1.125
309
GRIDFORMAT_END
 95
       32
302
GRIDFORMAT
  1
GRIDFORMAT_BEGIN
 90
        0
 91
        1
 62
     0
 92
       -2
340
14
 93
        0
 40
1.125
309
GRIDFORMAT_END
309
TABLEFORMAT_END
  1
CELLSTYLE_BEGIN
 90
        2
 91
        1
300
_HEADER
309
CELLSTYLE_END
300
CELLSTYLE
  1
TABLEFORMAT_BEGIN
 90
        5
170
     1
 91
        0
 92
        0
 62
   257
 93
        1
300
CONTENTFORMAT
  1
CONTENTFORMAT_BEGIN
 90
        0
 91
        0
 92
      512
 93
        0
300

 40
0.0
140
1.0
 94
        2
 62
     0
340
11
144
4.5
309
CONTENTFORMAT_END
171
     1
301
MARGIN
  1
CELLMARGIN_BEGIN
 40
1.5
 40
1.5
 40
1.5
 40
1.5
 40
4.5
 40
4.5
309
CELLMARGIN_END
 94
        6
 95
        1
302
GRIDFORMAT
  1
GRIDFORMAT_BEGIN
 90
        0
 91
        1
 62
     0
 92
       -2
340
14
 93
        0
 40
1.125
309
GRIDFORMAT_END
 95
        2
302
GRIDFORMAT
  1
GRIDFORMAT_BEGIN
 90
        0
 91
        1
 62
     0
 92
       -2
340
14
 93
        0
 40
1.125
309
GRIDFORMAT_END
 95
        4
302
GRIDFORMAT
  1
GRIDFORMAT_BEGIN
 90
        0
 91
        1
 62
     0
 92
       -2
340
14
 93
        0
 40
1.125
309
GRIDFORMAT_END
 95
        8
302
GRIDFORMAT
  1
GRIDFORMAT_BEGIN
 90
        0
 91
        1
 62
     0
 92
       -2
340
14
 93
        0
 40
1.125
309
GRIDFORMAT_END
 95
       16
302
GRIDFORMAT
  1
GRIDFORMAT_BEGIN
 90
        0
 91
        1
 62
     0
 92
       -2
340
14
 93
        0
 40
1.125
309
GRIDFORMAT_END
 95
       32
302
GRIDFORMAT
  1
GRIDFORMAT_BEGIN
 90
        0
 91
        1
 62
     0
 92
       -2
340
14
 93
        0
 40
1.125
309
GRIDFORMAT_END
309
TABLEFORMAT_END
  1
CELLSTYLE_BEGIN
 90
        3
 91
        2
300
_DATA
309
CELLSTYLE_END
  0
ENDSEC
  0
SECTION
  2
ACDSDATA
 70
     2
 71
     8
  0
ACDSSCHEMA
 90
        0
  1
AcDb_Thumbnail_Schema
  2
AcDbDs::ID
280
    10
 91
        8
  2
Thumbnail_Data
280
    15
 91
        0
101
ACDSRECORD
 95
        0
 90
        1
  2
AcDbDs::TreatedAsObjectData
280
     1
291
     1
101
ACDSRECORD
 95
        0
 90
        2
  2
AcDbDs::Legacy
280
     1
291
     1
101
ACDSRECORD
  1
AcDbDs::ID
 90
        3
  2
AcDs:Indexable
280
     1
291
     1
101
ACDSRECORD
  1
AcDbDs::ID
 90
        4
  2
AcDbDs::HandleAttribute
280
     7
282
     1
  0
ACDSSCHEMA
 90
        1
  1
AcDbDs::TreatedAsObjectDataSchema
  2
AcDbDs::TreatedAsObjectData
280
     1
 91
        0
  0
ACDSSCHEMA
 90
        2
  1
AcDbDs::LegacySchema
  2
AcDbDs::Legacy
280
     1
 91
        0
  0
ACDSSCHEMA
 90
        3
  1
AcDbDs::IndexedPropertySchema
  2
AcDs:Indexable
280
     1
 91
        0
  0
ACDSSCHEMA
 90
        4
  1
AcDbDs::HandleAttributeSchema
  2
AcDbDs::HandleAttribute
280
     7
 91
        1
284
     1
  0
ACDSRECORD
 90
        0
  2
AcDbDs::ID
280
    10
320
22
  2
Thumbnail_Data
280
    15
 94
     1367
310
89504E470D0A1A0A0000000D49484452000001000000005808030000002D06D97A00000300504C5445212830FFFFFF2128300000000000000000000000000000000000000000000000000000330000660000990000CC0000FF0033000033330033660033990033CC0033FF0066000066330066660066990066CC0066FF0099
310
000099330099660099990099CC0099FF00CC0000CC3300CC6600CC9900CCCC00CCFF00FF0000FF3300FF6600FF9900FFCC00FFFF3300003300333300663300993300CC3300FF3333003333333333663333993333CC3333FF3366003366333366663366993366CC3366FF3399003399333399663399993399CC3399FF33CC00
310
33CC3333CC6633CC9933CCCC33CCFF33FF0033FF3333FF6633FF9933FFCC33FFFF6600006600336600666600996600CC6600FF6633006633336633666633996633CC6633FF6666006666336666666666996666CC6666FF6699006699336699666699996699CC6699FF66CC0066CC3366CC6666CC9966CCCC66CCFF66FF0066
310
FF3366FF6666FF9966FFCC66FFFF9900009900339900669900999900CC9900FF9933009933339933669933999933CC9933FF9966009966339966669966999966CC9966FF9999009999339999669999999999CC9999FF99CC0099CC3399CC6699CC9999CCCC99CCFF99FF0099FF3399FF6699FF9999FFCC99FFFFCC0000CC00
310
33CC0066CC0099CC00CCCC00FFCC3300CC3333CC3366CC3399CC33CCCC33FFCC6600CC6633CC6666CC6699CC66CCCC66FFCC9900CC9933CC9966CC9999CC99CCCC99FFCCCC00CCCC33CCCC66CCCC99CCCCCCCCCCFFCCFF00CCFF33CCFF66CCFF99CCFFCCCCFFFFFF0000FF0033FF0066FF0099FF00CCFF00FFFF3300FF3333
310
FF3366FF3399FF33CCFF33FFFF6600FF6633FF6666FF6699FF66CCFF66FFFF9900FF9933FF9966FF9999FF99CCFF99FFFFCC00FFCC33FFCC66FFCC99FFCCCCFFCCFFFFFF00FFFF33FFFF66FFFF99FFFFCCFFFFFF0000000D0D0D1A1A1A2828283535354343435050505D5D5D6B6B6B787878868686939393A1A1A1AEAEAEBB
310
BBBBC9C9C9D6D6D6E4E4E4F1F1F1FFFFFF0000000000000000000000000000000000000000000000000000000000002E4550F1000000D44944415478DAEDDB4B0AC2301440D1ECA0FB5F814B72D465BCB9AD45B41A6C0988F99C3B0CA5C2E98B51C194244992244992A45C51477F04A8E33100000000000000000000000000
310
0000000000000050D94BFFF867BD9600DE169E17740E7078F9180011D76CCBFA360FD1F91648317FB6AC45CCB1DEABF4ADA08153E0B1E7738F7F9D80CBE6D3ED049C3D0DA6EE01BEAFDD87A0601F3407B03F115FC6632AFB50D0F816D84DC0D85BC07701000000000000000000000000000000000000000000000000000080
310
8A0146FFDFA02449922475D50DEFBA56846D0D6F270000000049454E44AE426082E47AC79F5E4B90853202CC25CB02461D57FB9F80397CE02F180F620E3C1930DF2F3F75A9F2E38F2DA0828087015901B157C834800305FC46CCE144350153A57301F125D55CCEF1BB05E8958051AD06C162C35F3E163E3EF3E9FD3E695C9C
310
BB80A9749357EBBE2CFE3F76D9B8210F1892E4F8ACF33CC00A6893B4C72592F202623A906EB39407B8E60262CB2B2D20562E45CF9E754F02EA4C869EE61C8B4391BB306BFDB23B6BE3D542C0DFB1E9B4026A2EBEF7DA05ECCAE31905648BEF8DDF99BDB9A964DF18E03A1160B7176CDC60B3BEDC69D5DEBC4554275D20BED0
310
8B69DDF3F68ADD02E67CE8D268415DAB1AA7DCF20EA3422DC0A5FD1ABDE501AA21A0EB442875791DD3057A10704027D3E6BD40DF381B3CFB340C010800000000000000000000000000806DDC00FF9F0889CCEB98940000000049454E44AE426082
  0
ENDSEC
  0
EOF
